<?xml version="1.0" standalone="no"?>
<!DOCTYPE svg PUBLIC "-//W3C//DTD SVG 1.1//EN" "http://www.w3.org/Graphics/SVG/1.1/DTD/svg11.dtd">
<svg xmlns="http://www.w3.org/2000/svg">
<metadata>Copyright (C) 2014 by original authors @ fontello.com</metadata>
<defs>
<font id="custom-icons" horiz-adv-x="1000" >
<font-face font-family="custom-icons" font-weight="400" font-stretch="normal" units-per-em="1000" ascent="850" descent="-150" />
<missing-glyph horiz-adv-x="1000" />
<glyph glyph-name="left-open-mini" unicode="&#xe800;" d="m252 180q26-26 0-48-26-26-48 0l-192 194q-24 24 0 50l192 194q22 26 48 0 26-22 0-48l-156-172z" horiz-adv-x="265" />
<glyph glyph-name="right-open-mini" unicode="&#xe801;" d="m13 180l158 170-158 172q-26 26 0 48 26 26 48 0l192-194q24-26 0-50l-192-194q-22-26-48 0-26 22 0 48z" horiz-adv-x="265" />
<glyph glyph-name="up-open-mini" unicode="&#xe802;" d="m62 230q-26-22-50 0-24 24 0 50l196 190q26 26 48 0l196-190q24-26 0-50-24-22-50 0l-170 158z" horiz-adv-x="464" />
<glyph glyph-name="down-open-big" unicode="&#xe803;" d="m63 570l370-356 372 356q22 26 48 0 26-22 0-48l-396-392q-22-22-48 0l-396 392q-26 26 0 48 24 24 50 0z" horiz-adv-x="866" />
<glyph glyph-name="left-open-big" unicode="&#xe804;" d="m452-20q26-26 0-48-26-26-48 0l-392 394q-24 24 0 50l392 394q22 26 48 0 26-22 0-48l-358-372z" horiz-adv-x="465" />
<glyph glyph-name="right-open-big" unicode="&#xe805;" d="m13-20l358 370-358 372q-26 26 0 48 26 26 48 0l392-394q24-26 0-50l-392-394q-22-26-48 0-26 22 0 48z" horiz-adv-x="465" />
<glyph glyph-name="up-open-big" unicode="&#xe806;" d="m804 130l-372 358-370-358q-26-22-50 0-24 24 0 50l396 390q26 26 48 0l396-390q24-26 0-50-26-22-48 0z" horiz-adv-x="864" />
<glyph glyph-name="glass" unicode="&#xe807;" d="m52 746q0 13 10 21t21 9 24 3h786q13 0 24-3t21-9 10-21q0-19-24-43l-353-353v-429h179q15 0 25-10t11-25-11-25-25-11h-500q-14 0-25 11t-11 25 11 25 25 10h179v429l-353 353q-24 24-24 43z" horiz-adv-x="1000" />
<glyph glyph-name="music" unicode="&#xe808;" d="m0-43q0 28 19 50t48 34 58 17 54 6q58 0 107-21v539q0 17 10 32t28 19l464 143q7 3 16 3 22 0 38-16t15-38v-625q0-28-19-50t-48-33-58-18-53-6-54 6-58 18-48 33-19 50 19 50 48 33 58 18 54 6q58 0 107-22v300l-429-132v-396q0-28-19-49t-48-34-58-18-53-6-54 6-58 18-48 34-19 49z" horiz-adv-x="857.1" />
<glyph glyph-name="search" unicode="&#xe809;" d="m0 386q0 80 31 152t84 126 125 84 153 31 152-31 126-84 84-126 31-152q0-123-69-223l191-191q21-21 21-51 0-29-22-50t-50-21q-30 0-50 21l-191 191q-100-69-223-69-80 0-153 31t-125 83-84 126-31 153z m143 0q0-103 73-177t177-73 176 73 74 177-74 176-176 74-177-74-73-176z" horiz-adv-x="928.6" />
<glyph glyph-name="mail" unicode="&#xe80a;" d="m0 11v607q0 37 26 63t63 26h822q37 0 63-26t26-63v-607q0-37-26-63t-63-27h-822q-36 0-63 27t-26 63z m71 0q0-8 6-13t12-5h822q7 0 12 5t6 13v428q-18-20-39-37-149-114-238-188-28-24-46-38t-48-27-57-13h-2q-26 0-57 13t-48 27-46 38q-88 74-238 188-21 17-39 37v-428z m0 607q0-94 82-159 108-84 224-176 4-3 20-17t25-21 25-17 28-16 24-5h2q11 0 24 5t28 16 25 17 25 21 20 17q116 92 224 176 30 24 56 65t26 73v14t-1 7-1 7-3 5-5 4-8 2h-822q-7 0-12-6t-6-12z" horiz-adv-x="1000" />
<glyph glyph-name="th-large" unicode="&#xe80b;" d="m0 64v215q0 29 21 50t50 21h286q29 0 50-21t22-50v-215q0-29-22-50t-50-21h-286q-29 0-50 21t-21 50z m0 429v214q0 29 21 50t50 22h286q29 0 50-22t22-50v-214q0-29-22-50t-50-22h-286q-29 0-50 22t-21 50z m500-429v215q0 29 21 50t50 21h286q29 0 50-21t22-50v-215q0-29-22-50t-50-21h-286q-29 0-50 21t-21 50z m0 429v214q0 29 21 50t50 22h286q29 0 50-22t22-50v-214q0-29-22-50t-50-22h-286q-29 0-50 22t-21 50z" horiz-adv-x="928.6" />
<glyph glyph-name="th" unicode="&#xe80c;" d="m0 46v108q0 22 16 38t38 15h178q22 0 38-15t16-38v-108q0-22-16-37t-38-16h-178q-23 0-38 16t-16 37z m0 286v107q0 23 16 38t38 16h178q22 0 38-16t16-38v-107q0-22-16-38t-38-15h-178q-23 0-38 15t-16 38z m0 286v107q0 22 16 38t38 16h178q22 0 38-16t16-38v-107q0-22-16-38t-38-16h-178q-23 0-38 16t-16 38z m357-572v108q0 22 16 38t38 15h178q23 0 38-15t16-38v-108q0-22-16-37t-38-16h-178q-23 0-38 16t-16 37z m0 286v107q0 23 16 38t38 16h178q23 0 38-16t16-38v-107q0-22-16-38t-38-15h-178q-23 0-38 15t-16 38z m0 286v107q0 22 16 38t38 16h178q23 0 38-16t16-38v-107q0-22-16-38t-38-16h-178q-23 0-38 16t-16 38z m357-572v108q0 22 16 38t38 15h178q23 0 38-15t16-38v-108q0-22-16-37t-38-16h-178q-22 0-38 16t-16 37z m0 286v107q0 23 16 38t38 16h178q23 0 38-16t16-38v-107q0-22-16-38t-38-15h-178q-22 0-38 15t-16 38z m0 286v107q0 22 16 38t38 16h178q23 0 38-16t16-38v-107q0-22-16-38t-38-16h-178q-22 0-38 16t-16 38z" horiz-adv-x="1000" />
<glyph glyph-name="th-list" unicode="&#xe80d;" d="m0 46v108q0 22 16 38t38 15h178q22 0 38-15t16-38v-108q0-22-16-37t-38-16h-178q-23 0-38 16t-16 37z m0 286v107q0 23 16 38t38 16h178q22 0 38-16t16-38v-107q0-22-16-38t-38-15h-178q-23 0-38 15t-16 38z m0 286v107q0 22 16 38t38 16h178q22 0 38-16t16-38v-107q0-22-16-38t-38-16h-178q-23 0-38 16t-16 38z m357-572v108q0 22 16 38t38 15h535q23 0 38-15t16-38v-108q0-22-16-37t-38-16h-535q-23 0-38 16t-16 37z m0 286v107q0 23 16 38t38 16h535q23 0 38-16t16-38v-107q0-22-16-38t-38-15h-535q-23 0-38 15t-16 38z m0 286v107q0 22 16 38t38 16h535q23 0 38-16t16-38v-107q0-22-16-38t-38-16h-535q-23 0-38 16t-16 38z" horiz-adv-x="1000" />
<glyph glyph-name="ok" unicode="&#xe80e;" d="m68 332q0 22 15 38l76 76q16 16 38 16t38-16l164-165 366 367q16 16 38 16t38-16l76-76q15-16 15-38t-15-38l-404-404-76-76q-16-15-38-15t-38 15l-76 76-202 202q-15 16-15 38z" horiz-adv-x="1000" />
<glyph glyph-name="ok-circled" unicode="&#xe80f;" d="m0 350q0 117 58 215t155 156 216 58 215-58 156-156 57-215-57-215-156-156-215-58-216 58-155 156-58 215z m141-11q0-15 10-25l202-202q10-10 25-10 15 0 25 10l303 303q11 10 11 25 0 16-11 26l-50 50q-11 11-25 11t-26-11l-227-227-126 126q-11 11-25 11t-26-11l-50-50q-10-10-10-26z" horiz-adv-x="857.1" />
<glyph glyph-name="mail-alt" unicode="&#xe810;" d="m0 11v443q25-28 56-49 202-137 278-192 32-24 51-37t53-27 61-13h2q28 0 61 13t53 27 51 37q95 68 278 192 32 22 56 49v-443q0-37-26-63t-63-27h-822q-36 0-63 27t-26 63z m0 595q0 43 23 72t66 29h822q36 0 62-26t27-63q0-44-27-84t-68-69q-210-146-262-181-5-4-23-17t-30-22-29-18-33-15-27-5h-2q-12 0-27 5t-33 15-29 18-30 22-23 17q-51 35-147 101t-114 80q-35 23-65 64t-31 77z" horiz-adv-x="1000" />
<glyph glyph-name="heart" unicode="&#xe811;" d="m0 517q0 123 71 192t196 70q34 0 70-12t67-33 54-38 42-38q20 20 42 38t54 38 67 33 70 12q125 0 196-70t71-192q0-123-128-251l-347-335q-10-10-25-10t-25 10l-348 336q-5 5-15 15t-31 36-38 55-30 67-13 77z" horiz-adv-x="1000" />
<glyph glyph-name="ok-circled2" unicode="&#xe812;" d="m0 350q0 117 58 215t155 156 216 58 215-58 156-156 57-215-57-215-156-156-215-58-216 58-155 156-58 215z m125 0q0-83 41-152t110-111 153-41 152 41 110 111 41 152-41 152-110 111-152 41-153-41-110-111-41-152z m68 0q0 15 11 25l57 57q10 11 25 11t25-11l82-82 153 153q11 11 25 11t26-11l56-56q11-11 11-26t-11-25l-235-235q-11-11-25-11t-25 11l-164 164q-11 11-11 25z" horiz-adv-x="857.1" />
<glyph glyph-name="ok-squared" unicode="&#xe813;" d="m0 82v536q0 66 47 113t114 48h535q67 0 114-48t47-113v-536q0-66-47-113t-114-48h-535q-67 0-114 48t-47 113z m122 268q0-14 10-25l200-200q11-10 25-10t25 10l343 343q10 10 10 25t-10 25l-57 57q-11 10-25 10t-25-10l-261-261-118 118q-10 11-25 11t-25-11l-57-57q-10-11-10-25z" horiz-adv-x="857.1" />
<glyph glyph-name="heart-empty" unicode="&#xe814;" d="m0 517q0 123 71 192t196 70q34 0 70-12t67-33 54-38 42-38q20 20 42 38t54 38 67 33 70 12q125 0 196-70t71-192q0-123-128-251l-347-335q-10-10-25-10t-25 10l-348 336q-5 5-15 15t-31 36-38 55-30 67-13 77z m71 0q0-93 105-198l324-312 324 312q105 105 105 198 0 46-12 80t-31 55-46 33-52 18-55 4-62-14-62-36-48-40-34-34q-10-13-27-13t-27 13q-14 15-34 34t-48 40-62 36-62 14-55-4-52-18-46-33-31-55-12-80z" horiz-adv-x="1000" />
<glyph glyph-name="star" unicode="&#xe815;" d="m0 489q0 21 31 26l280 40 126 254q11 23 27 23t28-23l125-254 280-40q32-5 32-26 0-12-15-27l-203-197 48-279q1-4 1-12 0-11-6-19t-17-9q-10 0-22 7l-251 132-250-132q-13-7-23-7-11 0-17 9t-6 19q0 4 1 12l48 279-203 197q-14 15-14 27z" horiz-adv-x="928.6" />
<glyph glyph-name="cancel" unicode="&#xe816;" d="m61 112q0 23 16 38l164 164-164 164q-16 16-16 38t16 38l76 76q16 16 38 16t38-16l164-164 164 164q16 16 38 16t38-16l76-76q15-15 15-38t-15-38l-164-164 164-164q15-15 15-38t-15-38l-76-76q-16-15-38-15t-38 15l-164 164-164-164q-16-15-38-15t-38 15l-76 76q-16 16-16 38z" horiz-adv-x="785.7" />
<glyph glyph-name="cancel-circled" unicode="&#xe817;" d="m0 350q0 117 58 215t155 156 216 58 215-58 156-156 57-215-57-215-156-156-215-58-216 58-155 156-58 215z m216-126q0-15 11-26l50-50q10-11 25-11 15 0 26 11l101 101 101-101q10-11 25-11 15 0 25 11l51 50q10 11 10 26 0 14-10 25l-101 101 101 101q10 11 10 25 0 15-10 26l-51 50q-10 11-25 11-15 0-25-11l-101-101-101 101q-11 11-26 11-15 0-25-11l-50-50q-11-11-11-26 0-14 11-25l101-101-101-101q-11-11-11-25z" horiz-adv-x="857.1" />
<glyph glyph-name="star-empty" unicode="&#xe818;" d="m0 489q0 21 31 26l280 40 126 254q11 23 27 23t28-23l125-254 280-40q32-5 32-26 0-12-15-27l-203-197 48-279q1-4 1-12 0-28-23-28-10 0-22 7l-251 132-250-132q-13-7-23-7-11 0-17 9t-6 19q0 4 1 12l48 279-203 197q-14 15-14 27z m123-34l171-165-41-235 211 111 211-111-41 235 171 165-235 35-106 213-105-213z" horiz-adv-x="928.6" />
<glyph glyph-name="star-half" unicode="&#xe819;" d="m0 489q0 21 31 26l280 40 126 254q11 23 27 23v-747l-250-132q-13-7-23-7-11 0-17 9t-6 19q0 4 1 12l48 279-203 197q-14 15-14 27z" horiz-adv-x="500" />
<glyph glyph-name="cancel-circled2" unicode="&#xe81a;" d="m0 350q0 117 58 215t155 156 216 58 215-58 156-156 57-215-57-215-156-156-215-58-216 58-155 156-58 215z m125 0q0-83 41-152t110-111 153-41 152 41 110 111 41 152-41 152-110 111-152 41-153-41-110-111-41-152z m114-89q0 7 6 13l76 76-76 76q-6 6-6 13t6 13l81 82q6 5 13 5t13-5l77-77 76 77q6 5 13 5t13-5l81-82q6-5 6-13t-6-13l-76-76 76-76q6-6 6-13t-6-13l-81-82q-6-5-13-5t-13 5l-76 77-77-77q-5-5-13-5t-13 5l-81 82q-6 5-6 13z" horiz-adv-x="857.1" />
<glyph glyph-name="star-half-alt" unicode="&#xe81b;" d="m1 495q5 16 30 20l280 40 126 254q11 23 27 23 16 0 28-23l125-254 280-40q25-4 30-20t-13-33l-203-197 48-279q3-19-3-29t-19-11q-9 0-22 7l-251 132-250-132q-13-7-23-7-12 0-19 11t-3 29l48 279-203 197q-18 18-13 33z m463-329l33-17 178-94-34 198-7 37 28 26 143 139-198 29-37 6-17 34-89 179v-537z" horiz-adv-x="928.6" />
<glyph glyph-name="plus-1" unicode="&#xe81c;" d="m0 332v107q0 23 16 38t38 16h232v232q0 22 15 38t38 16h107q23 0 38-16t16-38v-232h232q22 0 38-16t16-38v-107q0-22-16-38t-38-16h-232v-232q0-22-16-38t-38-15h-107q-22 0-38 15t-15 38v232h-232q-23 0-38 16t-16 38z" horiz-adv-x="785.7" />
<glyph glyph-name="user-1" unicode="&#xe81d;" d="m0 66q0 30 2 58t8 61 15 60 24 55 34 45 48 30 62 11q5 0 24-12t41-27 60-27 75-12 74 12 61 27 41 27 24 12q34 0 62-11t48-30 34-45 24-55 15-60 8-61 2-58q0-67-41-106t-108-39h-488q-67 0-108 39t-41 106z m179 498q0 89 62 152t152 63 151-63 63-152-63-151-151-63-152 63-62 151z" horiz-adv-x="785.7" />
<glyph glyph-name="plus-circled" unicode="&#xe81e;" d="m0 350q0 117 58 215t155 156 216 58 215-58 156-156 57-215-57-215-156-156-215-58-216 58-155 156-58 215z m179-36q0-14 10-25t25-10h143v-143q0-15 11-25t25-11h71q15 0 25 11t11 25v143h143q14 0 25 10t11 25v72q0 14-11 25t-25 10h-143v143q0 15-11 25t-25 11h-71q-15 0-25-11t-11-25v-143h-143q-14 0-25-10t-10-25v-72z" horiz-adv-x="857.1" />
<glyph glyph-name="users" unicode="&#xe81f;" d="m0 367q0 197 69 197 4 0 25-11t54-24 66-12q38 0 75 13-3-21-3-37 0-78 45-143-90-3-148-72h-75q-45 0-77 23t-31 66z m71 340q0 59 42 101t101 42 101-42 42-101-42-101-101-42-101 42-42 101z m72-713q0 30 2 58t8 61 14 61 24 54 35 45 48 30 62 11q6 0 24-12t41-26 59-27 76-12 75 12 60 27 41 26 23 12q35 0 63-11t47-30 35-45 24-54 15-61 8-61 2-58q0-66-41-105t-108-39h-488q-68 0-108 39t-41 105z m178 499q0 89 63 151t152 63 151-63 63-151-63-152-151-63-152 63-63 152z m393 214q0 59 42 101t101 42 101-42 42-101-42-101-101-42-101 42-42 101z m27-357q45 65 45 143 0 16-3 37 37-13 74-13 33 0 67 12t54 24 24 11q69 0 69-197 0-43-31-66t-77-22h-75q-57 68-147 71z" horiz-adv-x="1071.4" />
<glyph glyph-name="plus-squared" unicode="&#xe820;" d="m0 82v536q0 66 47 113t114 48h535q67 0 114-48t47-113v-536q0-66-47-113t-114-48h-535q-67 0-114 48t-47 113z m143 232q0-14 11-25t25-10h178v-179q0-14 11-25t25-11h71q15 0 25 11t11 25v179h179q14 0 25 10t10 25v72q0 14-10 25t-25 10h-179v179q0 15-11 25t-25 11h-71q-15 0-25-11t-11-25v-179h-178q-15 0-26-10t-10-25v-72z" horiz-adv-x="857.1" />
<glyph glyph-name="male" unicode="&#xe821;" d="m0 225v232q0 45 31 76t76 31h357q45 0 76-31t31-76v-232q0-22-15-38t-38-16-38 16-16 38v196h-35v-509q0-25-19-44t-44-18-44 18-18 44v259h-36v-259q0-25-19-44t-44-18-44 18-18 44v509h-36v-196q0-22-15-38t-38-16-38 16-16 38z m161 482q0 52 36 89t89 36 88-36 37-89-37-88-88-37-89 37-36 88z" horiz-adv-x="571.4" />
<glyph glyph-name="female" unicode="&#xe823;" d="m0 261q0 16 9 29l143 215q41 59 98 59h214q58 0 99-59l142-215q9-13 9-29 0-23-15-38t-38-16q-29 0-45 24l-127 190h-25v-73l138-230q5-8 5-18 0-14-10-25t-26-11h-107v-151q0-26-18-45t-44-18h-89q-26 0-45 18t-18 45v151h-107q-15 0-25 11t-11 25q0 10 5 18l138 230v73h-25l-127-190q-16-24-44-24-23 0-38 16t-16 38z m232 446q0 52 37 89t88 36 89-36 36-89-36-88-89-37-88 37-37 88z" horiz-adv-x="714.3" />
<glyph glyph-name="minus" unicode="&#xe824;" d="m0 332v107q0 23 16 38t38 16h678q22 0 38-16t16-38v-107q0-22-16-38t-38-15h-678q-23 0-38 15t-16 38z" horiz-adv-x="785.7" />
<glyph glyph-name="video" unicode="&#xe825;" d="m0-61v750q0 37 26 63t63 27h893q37 0 63-27t26-63v-750q0-37-26-63t-63-26h-893q-36 0-63 26t-26 63z m71 90v-72q0-14 11-25t25-11h72q14 0 25 11t10 25v72q0 14-10 25t-25 10h-72q-14 0-25-10t-11-25z m0 142q0-14 11-25t25-10h72q14 0 25 10t10 25v72q0 14-10 25t-25 11h-72q-14 0-25-11t-11-25v-72z m0 215q0-15 11-25t25-11h72q14 0 25 11t10 25v71q0 15-10 25t-25 11h-72q-14 0-25-11t-11-25v-71z m0 214q0-15 11-25t25-11h72q14 0 25 11t10 25v71q0 15-10 26t-25 10h-72q-14 0-25-10t-11-26v-71z m215-643q0-14 10-25t25-11h429q15 0 25 11t11 25v286q0 14-11 25t-25 11h-429q-14 0-25-11t-10-25v-286z m0 429q0-15 10-25t25-11h429q15 0 25 11t11 25v285q0 15-11 26t-25 10h-429q-14 0-25-10t-10-26v-285z m571-357v-72q0-14 11-25t25-11h71q15 0 25 11t11 25v72q0 14-11 25t-25 10h-71q-15 0-25-10t-11-25z m0 142q0-14 11-25t25-10h71q15 0 25 10t11 25v72q0 14-11 25t-25 11h-71q-15 0-25-11t-11-25v-72z m0 215q0-15 11-25t25-11h71q15 0 25 11t11 25v71q0 15-11 25t-25 11h-71q-15 0-25-11t-11-25v-71z m0 214q0-15 11-25t25-11h71q15 0 25 11t11 25v71q0 15-11 26t-25 10h-71q-15 0-25-10t-11-26v-71z" horiz-adv-x="1071.4" />
<glyph glyph-name="minus-circled" unicode="&#xe826;" d="m0 350q0 117 58 215t155 156 216 58 215-58 156-156 57-215-57-215-156-156-215-58-216 58-155 156-58 215z m179-36q0-14 10-25t25-10h429q14 0 25 10t11 25v72q0 14-11 25t-25 10h-429q-14 0-25-10t-10-25v-72z" horiz-adv-x="857.1" />
<glyph glyph-name="videocam" unicode="&#xe827;" d="m0 154v392q0 67 47 114t114 47h393q66 0 113-47t47-114v-92l225 225q10 10 25 10 7 0 14-3 22-9 22-32v-608q0-23-22-32-7-3-14-3-15 0-25 10l-225 225v-92q0-67-47-114t-113-47h-393q-67 0-114 47t-47 114z" horiz-adv-x="1000" />
<glyph glyph-name="minus-squared" unicode="&#xe828;" d="m0 82v536q0 66 47 113t114 48h535q67 0 114-48t47-113v-536q0-66-47-113t-114-48h-535q-67 0-114 48t-47 113z m143 232q0-14 11-25t25-10h500q14 0 25 10t10 25v72q0 14-10 25t-25 10h-500q-15 0-26-10t-10-25v-72z" horiz-adv-x="857.1" />
<glyph glyph-name="picture" unicode="&#xe829;" d="m0 11v678q0 37 26 63t63 27h893q37 0 63-27t26-63v-678q0-37-26-63t-63-27h-893q-36 0-63 27t-26 63z m71 0q0-8 6-13t12-5h893q7 0 13 5t5 13v678q0 8-5 13t-13 5h-893q-7 0-12-5t-6-13v-678z m72 53v107l178 179 90-89 285 285 233-232v-250h-786z m0 465q0 44 31 75t76 32 76-32 31-75-31-76-76-32-76 32-31 76z" horiz-adv-x="1071.4" />
<glyph glyph-name="minus-squared-alt" unicode="&#xe82a;" d="m0 154v464q0 66 47 113t114 48h464q66 0 114-48t47-113v-464q0-67-47-114t-114-47h-464q-67 0-114 47t-47 114z m71 0q0-37 27-63t63-27h464q37 0 63 27t26 63v464q0 37-26 63t-63 26h-464q-37 0-63-26t-27-63v-464z m72 214v36q0 7 5 12t13 5h464q8 0 13-5t5-12v-36q0-8-5-13t-13-5h-464q-8 0-13 5t-5 13z" horiz-adv-x="785.7" />
<glyph glyph-name="camera" unicode="&#xe82b;" d="m0 64v500q0 59 42 101t101 42h125l28 76q11 27 39 47t58 20h286q29 0 57-20t39-47l29-76h125q59 0 101-42t41-101v-500q0-59-41-101t-101-42h-786q-59 0-101 42t-42 101z m286 250q0-103 73-176t177-74 176 74 74 176-74 177-176 73-177-73-73-177z m89 0q0 67 47 114t114 47 113-47 47-114-47-113-113-47-114 47-47 113z" horiz-adv-x="1071.4" />
<glyph glyph-name="camera-alt" unicode="&#xe82d;" d="m0-7v714q0 30 21 51t50 21h858q29 0 50-21t21-51v-714q0-30-21-51t-50-21h-858q-29 0-50 21t-21 51z m71 0h858v71h-858v-71z m0 571h858v143h-462l-36-71h-360v-72z m72 107h214v72h-214v-72z m143-358q0-89 63-151t151-63 152 63 62 151-62 152-152 62-151-62-63-152z m71 0q0 59 42 101t101 42 101-42 42-101-42-101-101-42-101 42-42 101z m54 1q0-8 5-13t13-5 12 5 5 13q0 23 16 38t38 16q8 0 13 5t5 13-5 13-13 5q-37 0-63-27t-26-63z" horiz-adv-x="1000" />
<glyph glyph-name="help" unicode="&#xe82e;" d="m54 543q-1 8 3 16 89 148 259 148 45 0 90-17t81-46 59-72 23-88q0-30-8-57t-20-42-31-33-32-25-34-19q-23-13-38-37t-15-37q0-10-7-18t-16-9h-134q-8 0-14 10t-6 21v25q0 47 37 88t79 60q33 15 47 32t14 42q0 23-26 41t-60 18q-36 0-60-16-20-14-60-64-7-9-17-9-7 0-14 4l-91 70q-8 6-9 14z m160-528v134q0 9 7 16t16 6h134q8 0 15-6t7-16v-134q0-9-7-16t-15-6h-134q-9 0-16 6t-7 16z" horiz-adv-x="571.4" />
<glyph glyph-name="help-circled" unicode="&#xe82f;" d="m0 350q0 117 58 215t155 156 216 58 215-58 156-156 57-215-57-215-156-156-215-58-216 58-155 156-58 215z m233 167q-9-14 4-24l74-55q4-4 10-4 9 0 14 7 30 38 48 51 19 14 48 14 27 0 48-15t21-33q0-21-11-34t-38-25q-35-16-65-48t-29-70v-20q0-8 5-13t13-5h107q8 0 13 5t5 13q0 10 12 27t30 28q18 10 28 16t25 19 25 27 16 34 7 45q0 49-31 91t-77 65-95 23q-136 0-207-119z m124-435q0-8 5-13t13-5h107q8 0 13 5t5 13v107q0 8-5 13t-13 5h-107q-8 0-13-5t-5-13v-107z" horiz-adv-x="857.1" />
<glyph glyph-name="flag-empty" unicode="&#xe830;" d="m36 707q0 30 21 51t50 21 51-21 21-51q0-19-10-36t-26-25v-707q0-8-5-13t-13-5h-36q-7 0-13 5t-5 13v707q-16 9-25 25t-10 36z m143-536v414q0 20 17 31 19 12 44 24t63 29 85 28 87 10q62 0 117-17t116-48q21-11 50-11 68 0 173 63 12 6 17 9 17 9 35-1 17-11 17-31v-425q0-22-20-32-5-3-9-5-122-65-206-65-49 0-88 20l-16 7q-35 19-55 27t-51 16-63 8q-57 0-132-24t-127-57q-9-5-19-5-9 0-18 4-17 11-17 31z m71 60q137 63 242 63 30 0 57-5t55-14 43-17 46-22l16-8q24-12 56-12 67 0 164 51v344q-95-51-171-51-46 0-81 18-56 27-103 42t-99 16q-97 0-225-71v-334z" horiz-adv-x="1000" />
<glyph glyph-name="edit" unicode="&#xe831;" d="m0 154v464q0 66 47 113t114 48h464q35 0 65-14 9-4 10-13 2-10-5-16l-27-28q-8-8-18-4-13 3-25 3h-464q-37 0-63-26t-27-63v-464q0-37 27-63t63-27h464q37 0 63 27t26 63v70q0 7 5 12l36 36q8 8 20 4t11-16v-106q0-67-47-114t-114-47h-464q-67 0-114 47t-47 114z m357-18v160l375 375 161-160-375-375h-161z m54 107h53v-54h32l64 65-85 85-64-65v-31z m116 134q9-9 18 0l196 196q9 9 0 18t-18 0l-196-196q-9-9 0-18z m241 330l51 51q16 16 38 16t38-16l85-84q16-16 16-38t-16-38l-51-52z" horiz-adv-x="1000" />
<glyph glyph-name="doc-text" unicode="&#xe832;" d="m0-96v892q0 23 16 38t38 16h500q22 0 49-11t42-27l174-174q16-16 27-42t11-50v-642q0-23-15-38t-38-16h-750q-23 0-38 16t-16 38z m71 17h715v572h-232q-23 0-38 15t-16 38v233h-429v-858z m143 161v36q0 8 5 13t13 5h393q8 0 13-5t5-13v-36q0-8-5-13t-13-5h-393q-8 0-13 5t-5 13z m0 143v36q0 8 5 13t13 5h393q8 0 13-5t5-13v-36q0-8-5-13t-13-5h-393q-8 0-13 5t-5 13z m0 143v36q0 7 5 12t13 5h393q8 0 13-5t5-12v-36q0-8-5-13t-13-5h-393q-8 0-13 5t-5 13z m357 196h210q-5 16-12 23l-175 175q-6 7-23 12v-210z" horiz-adv-x="857.1" />
<glyph glyph-name="doc-inv" unicode="&#xe833;" d="m0-96v892q0 23 16 38t38 16h446v-304q0-22 16-38t38-15h303v-589q0-23-15-38t-38-16h-750q-23 0-38 16t-16 38z m571 660v264q13-8 21-16l227-228q8-7 16-20h-264z" horiz-adv-x="857.1" />
<glyph glyph-name="print" unicode="&#xe834;" d="m0 82v232q0 44 32 76t75 31h36v304q0 22 16 38t37 16h375q23 0 50-12t42-26l85-85q15-16 27-43t11-49v-143h35q45 0 76-31t32-76v-232q0-7-6-12t-12-6h-125v-89q0-22-16-38t-38-16h-536q-22 0-37 16t-16 38v89h-125q-7 0-13 6t-5 12z m214-89h500v143h-500v-143z m0 357h500v214h-89q-22 0-38 16t-16 38v89h-357v-357z m572-36q0-14 10-25t25-10 26 10 10 25-10 25-26 11-25-11-10-25z" horiz-adv-x="928.6" />
<glyph glyph-name="flag-checkered" unicode="&#xe835;" d="m36 707q0 30 21 51t50 21 51-21 21-51q0-19-10-36t-26-25v-707q0-8-5-13t-13-5h-36q-7 0-13 5t-5 13v707q-16 9-25 25t-10 36z m143-536v414q0 20 17 31 19 12 44 24t63 29 85 28 87 10q62 0 117-17t116-48q21-11 50-11 68 0 173 63 12 6 17 9 17 9 35-1 17-11 17-31v-425q0-22-20-32-5-3-9-5-122-65-206-65-49 0-88 20l-16 7q-35 19-55 27t-51 16-63 8q-57 0-132-24t-127-57q-9-5-19-5-9 0-18 4-17 11-17 31z m71 60q114 53 214 61v107q-101-9-214-65v-103z m0 228q120 62 214 66v110q-96-4-214-70v-106z m214-59h11q57 0 107-16t111-46q10-5 21-8v-105q24-9 51-9 67 0 164 51v103q-132-65-215-40v125q-11 3-21 8-3 2-19 10t-19 9-18 9-19 8-18 8-20 7-20 4-22 4-22 3-24 1q-13 0-28-2v-124z m250 55q83-24 215 50v106q-95-51-171-51-25 0-44 4v-109z" horiz-adv-x="1000" />
<glyph glyph-name="info-circled" unicode="&#xe836;" d="m0 350q0 117 58 215t155 156 216 58 215-58 156-156 57-215-57-215-156-156-215-58-216 58-155 156-58 215z m286-268q0-8 5-13t13-5h250q7 0 12 5t5 13v89q0 8-5 13t-12 5h-54v286q0 8-5 13t-13 5h-178q-8 0-13-5t-5-13v-89q0-8 5-13t13-5h53v-179h-53q-8 0-13-5t-5-13v-89z m71 500q0-8 5-13t13-5h107q8 0 13 5t5 13v89q0 8-5 13t-13 5h-107q-8 0-13-5t-5-13v-89z" horiz-adv-x="857.1" />
<glyph glyph-name="info" unicode="&#xe837;" d="m0 29v71q0 15 11 25t25 11h35v214h-35q-15 0-25 11t-11 25v71q0 15 11 25t25 11h214q15 0 25-11t11-25v-321h35q15 0 26-11t10-25v-71q0-15-10-26t-26-10h-285q-15 0-25 10t-11 26z m71 607v107q0 14 11 25t25 11h143q15 0 25-11t11-25v-107q0-15-11-25t-25-11h-143q-14 0-25 11t-11 25z" horiz-adv-x="357.1" />
<glyph glyph-name="thumbs-up" unicode="&#xe838;" d="m0 64v357q0 30 21 51t50 21h153q20 13 77 86 32 42 60 72 13 14 19 47t17 71 35 60q22 21 50 21 47 0 84-18t57-57 20-104q0-51-27-107h98q58 0 101-42t42-100q0-50-27-91 5-18 5-39 0-43-21-80 1-12 1-24 0-56-33-99 0-78-48-123t-126-45h-72q-54 0-106 13t-121 36q-65 23-77 23h-161q-29 0-50 21t-21 50z m71 36q0-14 11-25t25-11 25 11 11 25-11 25-25 11-25-11-11-25z m143-36h18q7 0 18-1t18-4 21-6 20-7 20-7 16-5q118-41 191-41h67q107 0 107 93 0 15-2 31 16 9 26 30t10 41-10 38q29 28 29 67 0 13-5 31t-14 26q18 1 30 26t12 45q0 29-22 50t-50 22h-196q0 32 27 89t26 89q0 55-17 81t-72 27q-14-15-21-48t-17-70-33-61q-13-13-43-51-2-3-13-17t-18-22-19-24-22-25-22-19-22-16-20-5h-18v-357z" horiz-adv-x="857.1" />
<glyph glyph-name="retweet" unicode="&#xe839;" d="m0 386q0 13 8 23l179 214q11 12 27 12t28-12l178-214q9-10 9-23 0-15-11-25t-25-11h-107v-214h321q9 0 14-6l89-108q4-6 4-11 0-8-5-13t-13-5h-535q-5 0-8 1t-5 4-3 4-2 7 0 6v335h-107q-15 0-25 11t-11 25z m357 232q0 7 5 12t13 6h536q4 0 7-1t5-4 3-5 2-6 1-7v-334h107q14 0 25-11t10-25q0-14-8-23l-179-214q-11-13-27-13t-27 13l-179 214q-8 9-8 23 0 14 10 25t26 11h107v214h-322q-9 0-14 7l-89 107q-4 5-4 11z" horiz-adv-x="1071.4" />
<glyph glyph-name="doc-text-inv" unicode="&#xe83a;" d="m0-96v892q0 23 16 38t38 16h446v-304q0-22 16-38t38-15h303v-589q0-23-15-38t-38-16h-750q-23 0-38 16t-16 38z m214 178q0-8 5-13t13-5h393q8 0 13 5t5 13v36q0 8-5 13t-13 5h-393q-8 0-13-5t-5-13v-36z m0 143q0-8 5-13t13-5h393q8 0 13 5t5 13v36q0 8-5 13t-13 5h-393q-8 0-13-5t-5-13v-36z m0 143q0-8 5-13t13-5h393q8 0 13 5t5 13v36q0 7-5 12t-13 5h-393q-8 0-13-5t-5-12v-36z m357 196v264q13-8 21-16l227-228q8-7 16-20h-264z" horiz-adv-x="857.1" />
<glyph glyph-name="folder" unicode="&#xe83b;" d="m0 118v536q0 51 37 88t88 37h179q51 0 88-37t37-88v-18h375q51 0 88-37t37-88v-393q0-51-37-88t-88-37h-679q-51 0-88 37t-37 88z" horiz-adv-x="928.6" />
<glyph glyph-name="keyboard" unicode="&#xe83c;" d="m0 64v500q0 30 21 51t50 21h929q30 0 50-21t21-51v-500q0-29-21-50t-50-21h-929q-29 0-50 21t-21 50z m71 0h929v500h-929v-500z m72 81v53q0 9 9 9h53q9 0 9-9v-53q0-9-9-9h-53q-9 0-9 9z m0 143v53q0 9 9 9h125q9 0 9-9v-53q0-9-9-9h-125q-9 0-9 9z m0 142v54q0 9 9 9h53q9 0 9-9v-54q0-9-9-9h-53q-9 0-9 9z m143-285v53q0 9 9 9h482q9 0 9-9v-53q0-9-9-9h-482q-9 0-9 9z m0 285v54q0 9 9 9h53q9 0 9-9v-54q0-9-9-9h-53q-9 0-9 9z m71-142v53q0 9 9 9h54q9 0 9-9v-53q0-9-9-9h-54q-9 0-9 9z m72 142v54q0 9 9 9h53q9 0 9-9v-54q0-9-9-9h-53q-9 0-9 9z m71-142v53q0 9 9 9h54q8 0 8-9v-53q0-9-8-9h-54q-9 0-9 9z m71 142v54q0 9 9 9h54q9 0 9-9v-54q0-9-9-9h-54q-9 0-9 9z m72-142v53q0 9 9 9h53q9 0 9-9v-53q0-9-9-9h-53q-9 0-9 9z m71 142v54q0 9 9 9h54q9 0 9-9v-54q0-9-9-9h-54q-9 0-9 9z m72-142v53q0 9 9 9h62v134q0 9 9 9h54q9 0 9-9v-196q0-9-9-9h-125q-9 0-9 9z m71-143v53q0 9 9 9h54q9 0 9-9v-53q0-9-9-9h-54q-9 0-9 9z" horiz-adv-x="1071.4" />
<glyph glyph-name="thumbs-down" unicode="&#xe83d;" d="m0 279v357q0 29 21 50t50 21h161q12 0 77 22 72 25 125 37t111 13h63q78 0 126-45t48-120v-3q33-43 33-99 0-13-1-24 21-38 21-81 0-20-5-38 27-41 27-91 0-58-42-100t-101-42h-98q27-56 27-107 0-66-20-104-19-39-57-57t-84-18q-28 0-50 21-19 18-30 45t-14 51-10 47-17 36q-27 28-60 71-57 73-77 86h-153q-29 0-50 21t-21 50z m71 321q0-15 11-25t25-11 25 11 11 25-11 25-25 11-25-11-11-25z m143-321h18q9 0 20-5t22-15 22-20 22-25 19-24 18-22 13-17q30-38 43-51 23-24 33-61t17-70 21-48q54 0 72 27t17 81q0 33-26 89t-27 89h196q28 0 50 22t22 50q0 19-12 45t-30 26q8 10 14 27t5 30q0 39-29 67 10 18 10 38t-10 41-26 30q2 16 2 31 0 47-27 70t-76 23h-71q-73 0-191-41-3-1-16-6t-20-7-20-6-21-6-18-4-18-1h-18v-358z" horiz-adv-x="857.1" />
<glyph glyph-name="home" unicode="&#xe83e;" d="m15 348q0 8 6 12l401 334q18 15 42 15t43-15l136-114v109q0 8 5 13t13 5h107q8 0 13-5t5-13v-227l122-102q5-5 6-12t-4-13l-34-41q-5-5-12-7h-2q-7 0-12 4l-386 322-386-322q-7-4-13-4-7 2-12 7l-35 41q-4 5-3 13z m128-319v267q0 1 0 2t0 2l321 264 321-264q1-1 1-4v-267q0-15-11-26t-25-10h-214v214h-143v-214h-214q-15 0-25 10t-11 26z" horiz-adv-x="928.6" />
<glyph glyph-name="link" unicode="&#xe83f;" d="m9 600q0 67 47 113l82 82q47 46 114 46 67 0 114-47l114-116q47-46 47-113 0-69-49-117l49-49q48 49 116 49 67 0 114-47l116-116q47-47 47-114t-48-113l-82-81q-46-47-113-47-68 0-114 48l-115 115q-46 47-46 114 0 68 49 116l-49 49q-48-49-116-49-67 0-114 47l-116 116q-47 47-47 114z m107 0q0-22 16-38l116-116q15-15 38-15 23 0 40 17-2 2-11 11t-12 12-8 10-7 14-2 16q0 22 15 38t38 15q9 0 16-2t14-7 10-8 12-12 11-11q18 17 18 41 0 22-15 38l-115 115q-16 16-38 16-22 0-38-15l-82-82q-16-15-16-37z m392-393q0-23 16-38l115-116q15-15 38-15 22 0 38 15l82 81q15 16 15 37 0 23-15 38l-116 116q-16 16-38 16-24 0-40-18 1-1 10-10t12-12 9-11 7-14 2-15q0-23-16-38t-38-16q-8 0-15 2t-14 7-11 9-12 12-10 10q-19-17-19-40z" horiz-adv-x="928.6" />
<glyph glyph-name="thumbs-up-alt" unicode="&#xe840;" d="m0 29v357q0 14 11 25t25 10h160q15 0 26-10t10-25v-357q0-15-10-26t-26-10h-160q-15 0-25 10t-11 26z m71 71q0-15 11-25t25-11q15 0 25 11t11 25q0 15-11 25t-25 11q-15 0-25-11t-11-25z m197-71v357q0 14 10 25t24 11q13 1 42 33t57 67q38 49 56 67 10 10 17 27t10 27 8 34q4 22 7 34t11 29 18 28q11 11 26 11 25 0 46-6t33-15 22-22 14-26 7-27 2-26 1-21q0-21-6-43t-10-33-16-31q-1-4-5-10t-6-13-5-13h155q43 0 75-32t32-75q0-48-31-83 9-25 9-43 1-42-24-76 9-32 0-66-9-31-31-52 5-63-27-101-36-43-110-44h-72q-37 0-80 9t-68 16-67 22q-69 24-88 25-15 0-26 11t-10 25z" horiz-adv-x="928.6" />
<glyph glyph-name="gamepad" unicode="&#xe841;" d="m0 279q0 118 84 202t202 83h500q118 0 202-83t83-202-83-202-202-84q-107 0-189 71h-123q-81-71-188-71-119 0-202 84t-84 202z m107-36q0-8 5-13t13-5h107v-107q0-8 5-13t13-5h71q8 0 13 5t5 13v107h107q8 0 13 5t5 13v71q0 8-5 13t-13 5h-107v107q0 8-5 13t-13 5h-71q-8 0-13-5t-5-13v-107h-107q-8 0-13-5t-5-13v-71z m536-36q0-29 21-50t50-21 51 21 21 50-21 51-51 21-50-21-21-51z m143 143q0-30 21-50t50-21 51 21 21 50-21 51-51 20-50-20-21-51z" horiz-adv-x="1071.4" />
<glyph glyph-name="folder-open" unicode="&#xe842;" d="m0 118v536q0 51 37 88t88 37h179q51 0 88-37t37-88v-18h303q51 0 88-37t37-88v-90h-464q-53 0-110-26t-92-67l-188-221-2-3q0 2-1 7t0 7z m41-94q0 17 17 37l188 221q24 28 67 48t80 20h607q19 0 34-7t15-24q0-18-18-37l-187-221q-24-28-67-48t-81-20h-607q-19 0-33 7t-15 24z" horiz-adv-x="1071.4" />
<glyph glyph-name="folder-empty" unicode="&#xe843;" d="m0 118v536q0 51 37 88t88 37h179q51 0 88-37t37-88v-18h375q51 0 88-37t37-88v-393q0-51-37-88t-88-37h-679q-51 0-88 37t-37 88z m71 0q0-22 16-38t38-16h679q22 0 38 16t15 38v393q0 22-15 38t-38 15h-393q-23 0-38 16t-16 38v36q0 22-15 38t-38 15h-179q-22 0-38-15t-16-38v-536z" horiz-adv-x="928.6" />
<glyph glyph-name="comment-1" unicode="&#xe844;" d="m0 350q0 73 40 139t106 114 160 76 194 28q136 0 251-48t182-130 67-179-67-179-182-130-251-48q-39 0-81 4-110-97-257-135-27-7-63-12-10-1-17 5t-10 16v1q-2 2 0 7t1 5 2 5l4 5t4 5 4 5q4 5 17 19t20 22 17 22 18 28 15 33 15 42q-88 50-138 123t-51 157z" horiz-adv-x="1000" />
<glyph glyph-name="thumbs-down-alt" unicode="&#xe845;" d="m0 243q0-15 11-25t25-11h160q15 0 26 11t10 25v357q0 15-10 25t-26 11h-160q-15 0-25-11t-11-25v-357z m71 286q0 15 11 25t25 10q15 0 25-10t11-25q0-15-11-26t-25-10q-15 0-25 10t-11 26z m197-287v358q0 15 10 25t26 11q19 0 88 24 43 15 67 22t68 16 80 9h72q74-1 110-43 32-39 27-101 22-21 31-53 9-34 0-65 25-34 24-77 0-18-9-42 31-34 31-83-1-44-32-76t-75-31h-155q2-8 5-14t6-12 5-10q10-21 15-32t11-33 6-42q0-14-1-22t-2-25-7-28-14-25-22-23-33-14-46-6q-15 0-26 11-11 11-18 27t-11 29-7 35q-5 23-8 33t-10 27-17 27q-18 19-56 67-28 36-57 68t-42 33q-14 1-24 11t-10 24z" horiz-adv-x="928.6" />
<glyph glyph-name="unlink" unicode="&#xe846;" d="m0 243q0 8 5 13t13 5h178q8 0 13-5t5-13-5-13-13-5h-178q-8 0-13 5t-5 13z m9 357q0 67 47 113l82 82q47 46 114 46 67 0 114-47l186-187q12-12 23-32l-133-10-152 153q-16 16-38 16-22 0-38-15l-82-82q-16-15-16-37 0-22 16-38l153-153-10-134q-20 12-32 24l-187 187q-47 48-47 114z m62-589q0 7 5 13l143 142q6 5 13 5t13-5q5-5 5-12t-5-13l-143-143q-5-5-13-5-6 0-13 5-5 6-5 13z m233-72v179q0 8 5 13t12 5 13-5 5-13v-179q0-8-5-13t-13-5-12 5-5 13z m49 257l134 10 152-153q15-15 38-15t38 15l82 81q15 16 15 37 0 23-15 38l-153 154 10 133q20-12 31-23l188-188q47-48 47-114 0-67-48-113l-82-81q-46-47-113-47-68 0-114 48l-186 187q-12 11-24 31z m236 458v178q0 8 5 13t13 5 13-5 5-13v-178q0-8-5-13t-13-5-13 5-5 13z m90-36q0 7 5 13l142 142q6 5 13 5t13-5q5-5 5-12t-5-13l-143-143q-6-5-13-5t-12 5q-5 6-5 13z m35-89q0 7 5 12t13 5h179q8 0 13-5t5-12-5-13-13-5h-179q-8 0-13 5t-5 13z" horiz-adv-x="928.6" />
<glyph glyph-name="link-ext" unicode="&#xe847;" d="m0 154v464q0 66 47 113t114 48h393q7 0 12-5t5-13v-36q0-8-5-13t-12-5h-393q-37 0-63-26t-27-63v-464q0-37 27-63t63-27h464q37 0 63 27t26 63v178q0 8 5 13t13 5h36q8 0 13-5t5-13v-178q0-67-47-114t-114-47h-464q-67 0-114 47t-47 114z m382 160q0 8 6 13l364 364-99 98q-10 11-10 25t10 25 26 11h285q15 0 25-11t11-25v-285q0-15-11-26t-25-10-25 10l-98 99-364-364q-5-6-13-6t-13 6l-63 63q-6 6-6 13z" horiz-adv-x="1000" />
<glyph glyph-name="download" unicode="&#xe848;" d="m0 46v179q0 22 16 38t38 16h259l75-76q33-32 76-32t76 32l76 76h259q22 0 38-16t16-38v-179q0-22-16-37t-38-16h-821q-23 0-38 16t-16 37z m181 497q10 21 33 21h143v250q0 15 11 25t25 11h143q14 0 25-11t10-25v-250h143q24 0 33-21 10-23-8-40l-250-250q-10-10-25-10t-25 10l-250 250q-17 17-8 40z m462-443q0-14 10-25t26-11 25 11 10 25-10 25-25 11-26-11-10-25z m143 0q0-14 10-25t25-11 26 11 10 25-10 25-26 11-25-11-10-25z" horiz-adv-x="928.6" />
<glyph glyph-name="chat-1" unicode="&#xe849;" d="m0 421q0 78 53 144t143 104 197 38 197-38 143-104 53-144-53-143-143-104-197-38q-48 0-98 9-70-50-155-72-21-5-48-9h-2q-6 0-12 5t-6 11q-1 2-1 4t1 4 1 3l1 3t2 3 2 3 3 2 2 3q3 3 13 14t15 16 12 17 14 21 11 25q-69 40-108 98t-40 125z m344-354q32-3 49-3 90 0 172 25t148 72q69 52 107 119t37 141q0 43-13 85 72-39 114-99t42-128q0-67-40-126t-108-98q5-14 11-25t14-21 13-16 14-17 13-14q0 0 2-2t3-3 2-3 2-3l1-3t1-3 1-4-1-3q-2-8-7-13t-13-4q-27 4-48 9-85 23-155 72-50-9-98-9-151 0-263 74z" horiz-adv-x="1000" />
<glyph glyph-name="folder-open-empty" unicode="&#xe84a;" d="m0 118v536q0 51 37 88t88 37h179q51 0 88-37t37-88v-18h303q51 0 88-37t37-88v-90h107q30 0 56-13t37-40q8-17 8-38 0-34-25-66l-165-203q-24-30-65-49t-78-19h-607q-51 0-88 37t-37 88z m71 60l143 175q25 30 65 49t78 19h429v90q0 22-16 38t-38 15h-321q-23 0-38 16t-16 38v36q0 22-15 38t-38 15h-179q-22 0-38-15t-16-38v-476z m24-94q0-20 30-20h607q22 0 48 13t40 29l164 203q10 12 10 21 0 20-30 20h-607q-22 0-48-12t-39-29l-164-203q-11-13-11-22z" horiz-adv-x="1071.4" />
<glyph glyph-name="box" unicode="&#xe84b;" d="m36 600v143q0 14 10 25t25 11h858q14 0 25-11t10-25v-143q0-15-10-25t-25-11h-858q-14 0-25 11t-10 25z m35-643v536q0 14 11 25t25 11h786q14 0 25-11t11-25v-536q0-14-11-25t-25-11h-786q-14 0-25 11t-11 25z m322 429q0-15 10-25t26-11h142q15 0 26 11t10 25-10 25-26 10h-142q-15 0-26-10t-10-25z" horiz-adv-x="1000" />
<glyph glyph-name="comment-2" unicode="&#xe84c;" d="m0 350q0 97 67 179t182 130 251 48 251-48 182-130 67-179-67-179-182-130-251-48q-39 0-81 4-110-97-257-135-27-8-63-12h-3q-8 0-15 6t-9 15v1q-2 2 0 6t1 6 2 5l4 5t4 5 4 5q4 5 17 19t20 22 17 22 18 28 15 33 15 42q-88 50-138 123t-51 157z m71 0q0-62 40-119t113-98l48-28-15-54q-13-50-39-96 85 36 154 96l24 21 31-3q39-5 73-5 114 0 213 39t157 105 59 142-59 142-157 105-213 39-213-39-157-105-59-142z" horiz-adv-x="1000" />
<glyph glyph-name="upload" unicode="&#xe84d;" d="m0-25v179q0 22 16 38t38 15h238q12-31 39-51t62-20h143q34 0 61 20t40 51h238q22 0 38-15t16-38v-179q0-22-16-38t-38-16h-821q-23 0-38 16t-16 38z m181 540q-9 22 8 39l250 250q10 10 25 10t25-10l250-250q18-17 8-39-9-22-33-22h-143v-250q0-15-10-25t-25-11h-143q-15 0-25 11t-11 25v250h-143q-23 0-33 22z m462-486q0-15 10-26t26-10 25 10 10 26-10 25-25 10-26-10-10-25z m143 0q0-15 10-26t25-10 26 10 10 26-10 25-26 10-25-10-10-25z" horiz-adv-x="928.6" />
<glyph glyph-name="link-ext-alt" unicode="&#xe84e;" d="m0 82v536q0 66 47 113t114 48h535q67 0 114-48t47-113v-536q0-66-47-113t-114-48h-535q-67 0-114 48t-47 113z m157 89q0-14 11-25l57-57q11-10 25-10t25 10l298 298 80-80q11-11 26-11 6 0 14 3 21 10 21 33v268q0 15-10 25t-25 11h-268q-24 0-33-22-10-23 8-39l80-80-298-298q-11-11-11-26z" horiz-adv-x="857.1" />
<glyph glyph-name="attach" unicode="&#xe84f;" d="m2 564q0 88 62 150t150 62q88 0 152-63l338-338q5-5 5-12 0-9-17-26t-26-17q-7 0-13 5l-338 339q-44 43-101 43-59 0-100-42t-40-101q0-58 42-101l433-433q35-35 81-35 36 0 59 23t24 59q0 46-36 81l-324 324q-14 14-33 14-16 0-27-11t-11-27q0-18 14-33l229-228q6-6 6-13 0-9-18-26t-26-17q-7 0-12 5l-229 229q-35 34-35 83 0 46 32 78t77 32q49 0 83-36l325-324q55-54 55-131 0-65-44-109t-109-44q-75 0-131 56l-434 433q-63 64-63 151z" horiz-adv-x="785.7" />
<glyph glyph-name="download-cloud" unicode="&#xe850;" d="m0 243q0 72 39 134t105 92q-1 17-1 24 0 118 84 202t202 84q87 0 159-49t105-129q40 35 93 35 59 0 101-42t42-101q0-43-23-77 72-17 119-76t46-133q0-89-62-151t-152-63h-607q-103 0-177 73t-73 177z m286 89q0-8 5-13l196-196q5-5 13-5t13 5l196 196q5 6 5 13 0 8-5 13t-13 5h-125v196q0 8-5 13t-12 5h-108q-7 0-12-5t-5-13v-196h-125q-8 0-13-5t-5-13z" horiz-adv-x="1071.4" />
<glyph glyph-name="chat" unicode="&#xe851;" d="m0 421q0 78 53 144t143 104 197 38 197-38 143-104 53-144-53-143-143-104-197-38q-48 0-98 9-70-50-155-72-21-5-48-9h-2q-6 0-12 5t-6 11q-1 2-1 4t1 4 1 3l1 3t2 3 2 3 3 2 2 3q3 3 13 14t15 16 12 17 14 21 11 25q-69 40-108 98t-40 125z m71 0q0-45 30-88t83-73l54-32-19-46q19 11 34 21l25 18 30-6q43-8 85-8 85 0 159 29t118 79 44 106-44 107-118 79-159 29-160-29-118-79-44-107z m273-354q32-3 49-3 90 0 172 25t148 72q69 52 107 119t37 141q0 43-13 85 72-39 114-99t42-128q0-67-40-126t-108-98q5-14 11-25t14-21 13-16 14-17 13-14q0 0 2-2t3-3 2-3 2-3l1-3t1-3 1-4-1-3q-2-8-7-13t-13-4q-27 4-48 9-85 23-155 72-50-9-98-9-151 0-263 74z" horiz-adv-x="1000" />
<glyph glyph-name="rss" unicode="&#xe852;" d="m0 100q0 45 31 76t76 31 76-31 31-76-31-76-76-31-76 31-31 76z m0 282v75q0 16 12 26 9 10 24 10h3q89-7 170-45t145-101q63-63 101-145t45-171q1-15-9-26-11-12-27-12h-75q-14 0-24 9t-11 23q-12 128-103 219t-219 103q-14 1-23 11t-9 24z m0 281v80q0 15 11 26 10 10 25 10h1q147-8 280-67t238-164q104-104 164-238t67-280q1-15-10-26-10-11-26-11h-80q-14 0-25 10t-11 23q-6 120-56 228t-129 188-188 129-227 57q-14 0-24 11t-10 24z" horiz-adv-x="785.7" />
<glyph glyph-name="rss-squared" unicode="&#xe853;" d="m0 82v536q0 66 47 113t114 48h535q67 0 114-48t47-113v-536q0-66-47-113t-114-48h-535q-67 0-114 48t-47 113z m143 54q0-30 21-51t50-21 51 21 21 51-21 50-51 21-50-21-21-50z m0 178q0-8 5-13t12-5q86-6 147-68t67-147q1-7 6-12t12-5h72q7 0 13 6t5 13q-8 130-99 221t-221 99q-8 1-14-5t-5-13v-71z m0 214q0-7 5-12t12-6q114-4 211-62t156-155 62-211q0-8 5-13t13-5h71q7 0 13 6 6 5 5 13-3 86-31 166t-78 145-115 114-145 78-166 31q-8 1-13-5-5-5-5-13v-71z" horiz-adv-x="857.1" />
<glyph glyph-name="bell" unicode="&#xe854;" d="m0 64q106 90 160 222t54 278q0 92 54 146t147 66q-4 10-4 20 0 23 15 38t38 16 38-16 16-38q0-10-5-20 94-11 148-66t53-146q0-146 54-278t161-222q0-29-22-50t-50-21h-250q0-59-42-101t-101-42-101 42-42 101h-250q-29 0-50 21t-21 50z m102 0h724q-91 101-137 230t-46 270q0 143-179 143t-178-143q0-141-46-270t-138-230z m264-71q0-41 29-70t69-28q9 0 9 9t-9 8q-33 0-56 24t-24 57q0 9-9 9t-9-9z" horiz-adv-x="928.6" />
<glyph glyph-name="upload-cloud" unicode="&#xe855;" d="m0 243q0 72 39 134t105 92q-1 17-1 24 0 118 84 202t202 84q87 0 159-49t105-129q40 35 93 35 59 0 101-42t42-101q0-43-23-77 72-17 119-76t46-133q0-89-62-151t-152-63h-607q-103 0-177 73t-73 177z m286 125q0-8 5-13t13-5h125v-196q0-8 5-13t12-5h108q7 0 12 5t5 13v196h125q8 0 13 5t5 13q0 8-5 13l-196 196q-5 5-13 5t-13-5l-196-196q-5-6-5-13z" horiz-adv-x="1071.4" />
<glyph glyph-name="lock" unicode="&#xe856;" d="m0 46v322q0 22 16 38t38 15h17v108q0 102 74 176t176 74 177-74 73-176v-108h18q23 0 38-15t16-38v-322q0-22-16-37t-38-16h-535q-23 0-38 16t-16 37z m179 375h285v108q0 59-42 101t-101 41-101-41-41-101v-108z" horiz-adv-x="642.9" />
<glyph glyph-name="lock-open" unicode="&#xe857;" d="m0 46v322q0 22 16 38t38 15h375v108q0 103 73 176t177 74 176-74 74-176v-143q0-15-11-25t-25-11h-36q-14 0-25 11t-11 25v143q0 59-41 101t-101 41-101-41-42-101v-108h53q23 0 38-15t16-38v-322q0-22-16-37t-38-16h-535q-23 0-38 16t-16 37z" horiz-adv-x="928.6" />
<glyph glyph-name="reply" unicode="&#xe858;" d="m0 493q0 14 11 25l285 286q11 10 25 10t26-10 10-25v-143h125q398 0 488-225 30-75 30-186 0-93-71-252-2-4-6-13t-7-17-8-12q-6-10-15-10-9 0-13 6t-5 14q0 5 1 15t2 13q3 38 3 69 0 56-10 101t-27 77-45 56-59 39-74 24-86 12-98 3h-125v-143q0-14-10-25t-26-11-25 11l-285 286q-11 10-11 25z" horiz-adv-x="1000" />
<glyph glyph-name="bell-alt" unicode="&#xe859;" d="m0 64q106 90 160 222t54 278q0 92 54 146t147 66q-4 10-4 20 0 23 15 38t38 16 38-16 16-38q0-10-5-20 94-11 148-66t53-146q0-146 54-278t161-222q0-29-22-50t-50-21h-250q0-59-42-101t-101-42-101 42-42 101h-250q-29 0-50 21t-21 50z m366-71q0-41 29-70t69-28q9 0 9 9t-9 8q-33 0-56 24t-24 57q0 9-9 9t-9-9z" horiz-adv-x="928.6" />
<glyph glyph-name="phone" unicode="&#xe85a;" d="m0 589q0 52 29 104 31 57 59 68 14 6 38 12t39 6q8 0 12-2 10-3 30-43 6-10 16-30t20-35 17-30q2-2 10-14t12-20 4-16q0-11-16-27t-35-31-34-30-16-25q0-5 3-13t4-11 8-14 7-10q42-77 97-132t131-97q1 0 10-6t14-8 11-5 13-2q10 0 25 15t30 35 31 35 28 16q7 0 15-4t20-12 14-10q14-8 30-17t36-20 30-17q39-19 42-29 2-4 2-12 0-15-6-39t-12-38q-11-28-68-60-52-28-103-28-16 0-30 2t-32 7-26 8-31 11-28 10q-54 20-97 47-72 44-148 120t-120 148q-27 43-46 97-2 5-10 28t-12 31-8 26-7 32-2 29z" horiz-adv-x="785.7" />
<glyph glyph-name="phone-squared" unicode="&#xe85b;" d="m0 82v536q0 66 47 113t114 48h535q67 0 114-48t47-113v-536q0-66-47-113t-114-48h-535q-67 0-114 48t-47 113z m143 416q0-9 1-19t3-17 5-19 6-16 7-18 6-17q33-92 121-179t178-121q4-1 17-6t19-7 16-5 18-5 17-3 19-2q32 0 73 19t53 45q12 30 12 56 0 6-1 9-2 5-21 17t-50 27l-29 16q-3 2-11 8t-14 8-12 3q-10 0-26-18t-32-37-24-18q-4 0-9 2t-9 3-9 6-8 4q-56 31-95 71t-71 95q-1 2-5 8t-5 9-4 9-2 9q0 8 12 19t25 21 25 23 11 20q0 5-2 12t-9 14-7 10q-2 4-8 16t-14 25-15 27-14 23-9 10-9 1q-27 0-56-13-26-11-45-52t-19-73z" horiz-adv-x="857.1" />
<glyph glyph-name="reply-all" unicode="&#xe85c;" d="m0 493q0 14 11 25l285 286q17 17 39 7 22-9 22-32v-39l-221-222q-11-11-11-25t11-25l221-222v-39q0-23-22-33-7-3-14-3-15 0-25 11l-285 286q-11 10-11 25z m214 0q0 14 11 25l286 286q16 17 39 7 21-9 21-32v-147q230-15 335-123 94-97 94-284 0-32-9-75t-22-77-27-69-22-51l-12-22q-4-10-15-10-3 0-5 1-14 4-13 19 24 223-59 315-36 40-95 62t-150 29v-140q0-23-21-33-8-3-14-3-15 0-25 11l-286 286q-11 10-11 25z" horiz-adv-x="1000" />
<glyph glyph-name="lock-open-alt" unicode="&#xe85d;" d="m0 46v322q0 22 16 38t38 15h17v179q0 103 74 177t176 73 177-73 73-177q0-15-10-25t-25-11h-36q-14 0-25 11t-11 25q0 59-42 101t-101 42-101-42-41-101v-179h410q23 0 38-15t16-38v-322q0-22-16-37t-38-16h-535q-23 0-38 16t-16 37z" horiz-adv-x="642.9" />
<glyph glyph-name="attention-alt" unicode="&#xe85e;" d="m55 743q-1 14 9 25t25 11h179q14 0 25-11t9-25l-15-429q-1-14-12-25t-25-11h-143q-14 0-25 11t-12 25z m16-714v125q0 14 11 25t25 10h143q15 0 25-10t11-25v-125q0-15-11-26t-25-10h-143q-14 0-25 10t-11 26z" horiz-adv-x="357.1" />
<glyph glyph-name="attention" unicode="&#xe85f;" d="m9 27l429 786q9 17 26 27t36 10 36-10 27-27l428-786q20-35-1-70-10-17-26-26t-35-10h-858q-18 0-35 10t-26 26q-21 35-1 70z m411 519l9-255q0-5 6-9t13-3h103q8 0 13 3t6 9l10 257q0 6-5 10-7 6-14 6h-122q-7 0-14-6-5-4-5-12z m9-463q0-8 5-13t12-6h108q7 0 12 6t5 13v106q0 8-5 13t-12 5h-108q-7 0-12-5t-5-13v-106z" horiz-adv-x="1000" />
<glyph glyph-name="forward" unicode="&#xe860;" d="m0 225q0 111 30 186 90 225 488 225h125v143q0 14 10 25t26 10 25-10l285-286q11-11 11-25t-11-25l-285-286q-11-11-25-11t-26 11-10 25v143h-125q-55 0-98-3t-86-12-74-24-59-39-45-56-27-77-10-101q0-31 3-69 0-4 2-13t1-15q0-8-5-14t-13-6q-9 0-15 10-4 5-8 12t-7 17-6 13q-71 159-71 252z" horiz-adv-x="1000" />
<glyph glyph-name="pin" unicode="&#xe861;" d="m0 171q0 69 44 124t99 55v286q-29 0-50 21t-22 50 22 50 50 22h357q29 0 50-22t21-50-21-50-50-21v-286q55 0 99-55t44-124q0-14-11-25t-25-10h-239l-29-270q-1-6-6-11t-11-5h-1q-15 0-17 15l-43 271h-225q-15 0-25 10t-11 25z m232 197q0-8 5-13t13-5 13 5 5 13v250q0 8-5 13t-13 5-13-5-5-13v-250z" horiz-adv-x="642.9" />
<glyph glyph-name="eye" unicode="&#xe862;" d="m0 314q0 19 11 39 78 128 210 205t279 78 279-78 210-205q11-20 11-39t-11-38q-78-129-210-206t-279-77-279 77-210 206q-11 19-11 38z m71 0q75-114 187-182t242-68 242 68 187 182q-85 132-213 197 34-58 34-125 0-104-73-177t-177-73-177 73-73 177q0 67 34 125-128-65-213-197z m259 72q0-11 8-19t19-8 19 8 8 19q0 48 34 82t82 34q11 0 19 8t8 19-8 19-19 7q-70 0-120-50t-50-119z" horiz-adv-x="1000" />
<glyph glyph-name="quote-left" unicode="&#xe863;" d="m0 100v393q0 58 23 111t61 91 91 61 111 23h35q15 0 26-11t10-25v-72q0-14-10-25t-26-10h-35q-59 0-101-42t-42-101v-18q0-22 16-38t37-16h125q45 0 76-31t32-76v-214q0-45-32-76t-76-31h-214q-44 0-76 31t-31 76z m500 0v393q0 58 23 111t61 91 91 61 111 23h35q15 0 26-11t10-25v-72q0-14-10-25t-26-10h-35q-59 0-101-42t-42-101v-18q0-22 15-38t38-16h125q45 0 76-31t32-76v-214q0-45-32-76t-76-31h-214q-44 0-76 31t-31 76z" horiz-adv-x="928.6" />
<glyph glyph-name="attention-circle" unicode="&#xe864;" d="m0 350q0 117 58 215t155 156 216 58 215-58 156-156 57-215-57-215-156-156-215-58-216 58-155 156-58 215z m348 271l10-346q0-6 5-10t14-4h103q8 0 13 4t6 10l10 346q0 7-6 10-5 5-13 5h-123q-8 0-13-5-6-3-6-10z m9-538q0-8 6-13t13-6h107q7 0 12 6t5 13v106q0 8-5 13t-12 5h-107q-8 0-13-5t-6-13v-106z" horiz-adv-x="857.1" />
<glyph glyph-name="cog" unicode="&#xe865;" d="m0 289v124q0 7 5 13t10 7l104 16q8 25 22 51-23 32-60 77-6 7-6 14 0 5 5 12 15 20 55 60t53 40q7 0 15-5l77-60q24 13 50 21 9 76 17 104 3 15 20 15h124q7 0 13-4t7-12l15-103q28-9 50-21l80 60q5 5 13 5 7 0 14-5 72-67 92-95 4-5 4-13 0-6-4-12-9-12-29-38t-30-39q14-28 23-55l102-15q7-1 12-7t4-13v-124q0-7-4-13t-11-7l-104-16q-10-30-21-51 19-28 59-77 6-6 6-14t-5-12q-15-21-55-61t-53-39q-7 0-14 5l-77 60q-25-13-51-21-9-76-16-104-4-16-20-16h-124q-8 0-14 5t-6 12l-16 103q-27 9-50 20l-79-59q-6-5-14-5-8 0-14 6-70 63-92 94-4 5-4 12 0 7 5 13 8 12 28 37t30 40q-15 28-23 55l-102 15q-7 1-11 7t-5 13z m286 61q0-59 42-101t101-42 101 42 41 101-41 101-101 42-101-42-42-101z" horiz-adv-x="857.1" />
<glyph glyph-name="menu" unicode="&#xe866;" d="m0 29v71q0 15 11 25t25 11h785q15 0 26-11t10-25v-71q0-15-10-26t-26-10h-785q-15 0-25 10t-11 26z m0 285v72q0 14 11 25t25 10h785q15 0 26-10t10-25v-72q0-14-10-25t-26-10h-785q-15 0-25 10t-11 25z m0 286v71q0 15 11 26t25 10h785q15 0 26-10t10-26v-71q0-15-10-25t-26-11h-785q-15 0-25 11t-11 25z" horiz-adv-x="857.1" />
<glyph glyph-name="cog-alt" unicode="&#xe867;" d="m0 299v103q0 6 4 11t9 6l86 14q7 19 18 42-19 27-50 64-4 6-4 11 0 7 4 12 12 16 46 49t44 33q6 0 12-4l64-50q19 10 43 18 6 60 13 86 3 13 16 13h104q6 0 11-4t6-10l13-85q19-6 41-17l66 49q5 4 11 4 7 0 12-4 81-75 81-90 0-5-4-10-7-9-24-30t-25-34q13-27 19-46l85-12q5-2 9-6t4-11v-103q0-6-4-11t-9-6l-86-14q-6-19-18-42 19-27 50-64 4-6 4-11 0-7-4-11-13-17-46-50t-44-33q-6 0-11 4l-64 50q-21-11-43-17-6-60-13-87-4-13-17-13h-104q-6 0-11 4t-5 10l-13 85q-19 6-42 18l-66-50q-4-4-11-4-6 0-12 4-80 75-80 90 0 5 4 10 5 8 23 30t26 34q-13 24-20 46l-85 13q-5 1-9 5t-4 11z m214 51q0-59 42-101t101-42 101 42 42 101-42 101-101 42-101-42-42-101z m429-325v78q0 9 83 18 7 16 17 29-29 63-29 77 0 2 3 4 2 1 19 11t33 19 17 9q4 0 25-26t29-38q12 1 17 1t17-1q28 40 51 63l4 1q2 0 69-39 2-2 2-4 0-14-28-77 9-13 16-29 83-9 83-18v-78q0-9-83-17-6-15-16-29 28-63 28-77 0-2-2-4-68-40-69-40-5 0-26 27t-29 37q-11-1-17-1t-17 1q-7-11-29-37t-25-27q-1 0-69 40-3 2-3 4 0 14 29 77-10 14-17 29-83 8-83 17z m0 572v78q0 9 83 17 7 16 17 29-29 63-29 77 0 2 3 4 2 1 19 11t33 19 17 9q4 0 25-26t29-38q12 2 17 2t17-2q28 40 51 63l4 1q2 0 69-39 2-2 2-4 0-14-28-77 9-13 16-29 83-8 83-17v-78q0-9-83-18-6-15-16-29 28-63 28-77 0-2-2-4-68-39-69-39-5 0-26 26t-29 38q-11-1-17-1t-17 1q-7-12-29-38t-25-26q-1 0-69 39-3 2-3 4 0 14 29 77-10 14-17 29-83 9-83 18z m143-533q0-29 21-50t50-21 51 21 21 50q0 29-22 51t-50 21-50-21-21-51z m0 572q0-30 21-51t50-21 51 21 21 51q0 29-22 50t-50 21-50-21-21-50z" horiz-adv-x="1071.4" />
<glyph glyph-name="location" unicode="&#xe868;" d="m0 493q0 118 84 202t202 84 202-84 83-202q0-61-18-100l-203-432q-9-18-27-29t-37-11-38 11-26 29l-204 432q-18 39-18 100z m143 0q0-59 42-101t101-42 101 42 42 101-42 101-101 42-101-42-42-101z" horiz-adv-x="571.4" />
<glyph glyph-name="quote-right" unicode="&#xe869;" d="m0 457v214q0 45 31 76t76 32h214q45 0 76-32t32-76v-392q0-58-23-111t-61-91-91-62-111-22h-36q-14 0-25 10t-11 26v71q0 15 11 25t25 11h36q59 0 101 42t42 101v17q0 23-16 38t-38 16h-125q-44 0-76 31t-31 76z m500 0v214q0 45 31 76t76 32h214q45 0 76-32t32-76v-392q0-58-23-111t-61-91-91-62-111-22h-36q-14 0-25 10t-11 26v71q0 15 11 25t25 11h36q59 0 101 42t42 101v17q0 23-16 38t-38 16h-125q-44 0-76 31t-31 76z" horiz-adv-x="928.6" />
<glyph glyph-name="eye-off" unicode="&#xe86a;" d="m0 314q0 22 11 39 86 131 212 207t277 76q50 0 100-10l31 54q5 9 15 9 3 0 10-3t18-9 18-10 18-10 10-7q9-5 9-15 0-4 0-5-59-105-176-316t-176-316l-28-50q-5-9-15-9-7 0-75 39-9 6-9 16 0 7 25 48-80 37-147 97t-117 137q-11 17-11 38z m71 0q94-144 239-209l43 79q-48 35-76 88t-27 114q0 67 34 125-128-65-213-197z m259 72q0-11 8-19t19-8 19 8 8 19q0 48 34 82t82 34q11 0 19 8t8 19-8 19-19 7q-70 0-120-50t-50-119z m170-393l41 74q119 10 219 76t169 171q-65 100-158 164l35 63q53-36 102-86t81-102q11-19 11-39t-11-38q-22-36-61-81-84-96-194-149t-234-53z m89 159l157 281q4-26 4-47 0-78-44-142t-117-92z" horiz-adv-x="1000" />
<glyph glyph-name="tag-1" unicode="&#xe86b;" d="m0 475v232q0 29 21 50t50 22h233q29 0 65-15t57-36l399-399q20-21 20-50 0-30-20-51l-274-274q-22-21-51-21-30 0-50 21l-399 399q-21 21-36 57t-15 65z m107 125q0-30 21-50t51-21 50 21 21 50-21 51-50 20-51-20-21-51z" horiz-adv-x="857.1" />
<glyph glyph-name="code" unicode="&#xe86c;" d="m25 314q0 8 6 13l260 260q5 6 13 6t12-6l28-28q6-5 6-13t-6-12l-219-220 219-219q6-6 6-13t-6-13l-28-28q-5-5-12-5t-13 5l-260 260q-6 6-6 13z m372-350l208 720q3 8 9 11t13 2l35-10q7-2 11-9t1-13l-208-721q-2-7-9-11t-13-1l-34 9q-8 3-11 9t-2 14z m325 118q0 7 5 13l219 219-219 220q-5 5-5 12t5 13l28 28q6 6 13 6t13-6l260-260q5-5 5-13t-5-13l-260-260q-6-5-13-5t-13 5l-28 28q-5 6-5 13z" horiz-adv-x="1071.4" />
<glyph glyph-name="direction" unicode="&#xe86d;" d="m1 306q-3 12 2 23t17 17l714 357q7 4 16 4 15 0 25-10 8-8 10-20t-3-22l-357-714q-10-20-32-20-3 0-8 1-13 3-20 13t-8 22v322h-321q-13 0-22 7t-13 20z" horiz-adv-x="785.7" />
<glyph glyph-name="wrench" unicode="&#xe86e;" d="m12-7q0 29 21 51l380 380q22-55 64-97t97-64l-381-381q-21-20-50-20-29 0-51 20l-59 61q-21 20-21 50z m131 36q0-15 10-26t26-10 25 10 10 26-10 25-25 10-26-10-10-25z m286 500q0 103 73 176t177 74q32 0 67-10t60-26q9-6 9-15t-9-16l-163-94v-125l108-60q2 2 44 27t75 45 40 20q8 0 13-5t4-14q0-22-12-60-27-74-92-121t-144-47q-104 0-177 74t-73 176z" horiz-adv-x="928.6" />
<glyph glyph-name="basket" unicode="&#xe86f;" d="m0 671q0 15 11 26t25 10h143q9 0 16-3t11-9 7-14 4-15 3-16 3-14h670q14 0 25-11t11-25v-286q0-13-9-24t-23-12l-583-68q1-3 3-12t3-14 1-13q0-9-13-35h513q15 0 26-11t10-25-10-25-26-11h-571q-14 0-25 11t-11 25q0 8 6 22t17 33 11 21l-98 460h-114q-15 0-25 10t-11 25z m214-678q0 29 21 50t51 21 50-21 21-50-21-51-50-21-51 21-21 51z m500 0q0 29 21 50t51 21 50-21 21-50-21-51-50-21-51 21-21 51z" horiz-adv-x="928.6" />
<glyph glyph-name="compass" unicode="&#xe870;" d="m0 350q0 117 58 215t155 156 216 58 215-58 156-156 57-215-57-215-156-156-215-58-216 58-155 156-58 215z m125 0q0-83 41-152t110-111 153-41 152 41 110 111 41 152-41 152-110 111-152 41-153-41-110-111-41-152z m161-223v303l285 143v-303z m71 116l143 71-143 72v-143z" horiz-adv-x="857.1" />
<glyph glyph-name="export" unicode="&#xe871;" d="m0 154v464q0 66 47 113t114 48h142q7 0 13-6t5-12q0-15-15-18-43-15-74-34-5-2-9-2h-62q-37 0-63-26t-27-63v-464q0-37 27-63t63-27h464q37 0 63 27t26 63v119q0 11 10 16 16 7 30 21 9 9 20 4 12-5 12-16v-144q0-67-47-114t-114-47h-464q-67 0-114 47t-47 114z m143 232q0 27 2 51t8 50 15 49 27 45 38 42 52 34 70 27 89 17 110 6h89v107q0 24 22 33 7 3 14 3 14 0 25-11l214-214q11-11 11-25t-11-25l-214-214q-10-11-25-11-7 0-14 3-22 9-22 33v107h-89q-181 0-245-73-66-77-41-264 2-13-11-19-5-1-7-1-9 0-14 7-6 8-12 17t-22 38-28 56-21 64-10 68z" horiz-adv-x="928.6" />
<glyph glyph-name="tags" unicode="&#xe872;" d="m0 475v232q0 29 21 50t50 22h233q29 0 65-15t57-36l399-399q20-21 20-50 0-30-20-51l-274-274q-22-21-51-21-30 0-50 21l-399 399q-21 21-36 57t-15 65z m107 125q0-30 21-50t51-21 50 21 21 50-21 51-50 20-51-20-21-51z m286 179h125q29 0 65-15t57-36l399-399q21-21 21-50 0-30-21-51l-274-274q-22-21-51-21-20 0-33 8t-29 25l262 262q21 21 21 51 0 29-21 50l-399 399q-21 21-57 36t-65 15z" horiz-adv-x="1071.4" />
<glyph glyph-name="bookmark" unicode="&#xe873;" d="m0-3v719q0 19 11 35t29 23q12 5 25 5h585q12 0 24-5 19-8 29-23t11-35v-719q0-19-11-35t-29-23q-10-4-24-4-27 0-47 18l-246 236-246-236q-20-19-46-19-13 0-25 5-18 7-29 23t-11 35z" horiz-adv-x="714.3" />
<glyph glyph-name="bookmark-empty" unicode="&#xe874;" d="m0-3v719q0 19 11 35t29 23q12 5 25 5h585q12 0 24-5 19-8 29-23t11-35v-719q0-19-11-35t-29-23q-10-4-24-4-27 0-47 18l-246 236-246-236q-20-19-46-19-13 0-25 5-18 7-29 23t-11 35z m71 17l237 227 49 47 50-47 236-227v693h-572v-693z" horiz-adv-x="714.3" />
<glyph glyph-name="flag" unicode="&#xe875;" d="m36 707q0 30 21 51t50 21 51-21 21-51q0-40-36-61v-707q0-7-5-12t-13-6h-36q-7 0-12 6t-6 12v707q-35 21-35 61z m143-536v414q0 18 17 31 12 8 44 24 132 67 235 67 60 0 112-16t122-49q21-11 49-11 30 0 65 12t62 26 49 26 30 12q15 0 25-10t11-26v-425q0-14-7-22t-22-15q-120-65-206-65-34 0-69 12t-60 27-65 27-79 12q-107 0-259-81-10-5-19-5-14 0-25 10t-10 25z" horiz-adv-x="1000" />
<glyph glyph-name="pencil-squared" unicode="&#xe876;" d="m0 82v536q0 66 47 113t114 48h535q67 0 114-48t47-113v-536q0-66-47-113t-114-48h-535q-67 0-114 48t-47 113z m143-18h161l303 304-161 161-303-304v-161z m53 107v32l29 29 85-85-29-29h-31v53h-54z m80 98q-8 7 1 16l163 163q9 9 16 1 8-7-1-16l-163-163q-9-9-16-1z m206 295l161-160 51 51q16 16 16 38t-16 38l-85 85q-15 15-38 15t-38-15z" horiz-adv-x="857.1" />
<glyph glyph-name="pencil" unicode="&#xe877;" d="m0-79v233l464 464 232-232-464-465h-232z m71 143h72v-71h60l50 51-131 131-51-51v-60z m95 143q0-12 13-12 5 0 9 4l303 302q3 4 3 10 0 12-12 12-5 0-9-4l-303-302q-4-4-4-10z m334 447l93 92q20 21 50 21 29 0 51-21l131-131q20-22 20-51 0-29-20-50l-93-93z" horiz-adv-x="857.1" />
<glyph glyph-name="export-alt" unicode="&#xe878;" d="m0 82v536q0 66 47 113t114 48h535q67 0 114-48t47-113v-536q0-66-47-113t-114-48h-535q-67 0-114 48t-47 113z m143 161q0-101 93-226 6-6 14-6 4 0 7 1 13 5 11 19-25 197 34 264 26 29 73 42t125 13v-89q0-24 22-33 7-3 14-3 14 0 25 11l196 196q11 11 11 25t-11 25l-196 197q-17 17-39 7-22-9-22-32v-90q-66 0-121-11t-90-28-64-44-42-53-25-61-12-62-3-62z" horiz-adv-x="857.1" />
<glyph glyph-name="trash" unicode="&#xe879;" d="m0 582v36q0 8 5 13t13 5h172l39 93q9 21 31 35t44 15h178q22 0 44-15t30-35l39-93h173q8 0 13-5t5-13v-36q0-8-5-13t-13-5h-54v-529q0-46-26-80t-63-34h-464q-37 0-63 33t-27 79v531h-53q-8 0-13 5t-5 13z m143-547q0-12 4-22t8-15 6-5h464q2 0 6 5t8 15 4 22v529h-500v-529z m71 83v321q0 8 5 13t13 5h36q8 0 13-5t5-13v-321q0-8-5-13t-13-5h-36q-8 0-13 5t-5 13z m54 518h250l-27 65q-4 5-9 6h-177q-6-1-10-6z m89-518v321q0 8 5 13t13 5h36q8 0 13-5t5-13v-321q0-8-5-13t-13-5h-36q-8 0-13 5t-5 13z m143 0v321q0 8 5 13t13 5h36q7 0 12-5t5-13v-321q0-8-5-13t-12-5h-36q-8 0-13 5t-5 13z" horiz-adv-x="785.7" />
<glyph glyph-name="doc" unicode="&#xe87a;" d="m0-96v892q0 23 16 38t38 16h500q22 0 49-11t42-27l174-174q16-16 27-42t11-50v-642q0-23-15-38t-38-16h-750q-23 0-38 16t-16 38z m71 17h715v572h-232q-23 0-38 15t-16 38v233h-429v-858z m500 643h210q-5 16-12 23l-175 175q-6 7-23 12v-210z" horiz-adv-x="857.1" />
<glyph glyph-name="docs" unicode="&#xe87b;" d="m0 118v375q0 22 11 49t27 42l228 228q15 16 42 27t49 11h232q23 0 38-16t16-38v-183q38 23 71 23h232q23 0 38-16t16-38v-678q0-23-16-38t-38-16h-535q-23 0-38 16t-16 38v160h-303q-23 0-38 16t-16 38z m71 18h286v143q0 22 11 49t27 42l176 176v233h-214v-233q0-22-15-38t-38-15h-233v-357z m48 428h167v167z m310-643h500v643h-215v-232q0-22-15-38t-38-15h-232v-358z m47 429h167v167z" horiz-adv-x="1000" />
<glyph glyph-name="login" unicode="&#xe87c;" d="m0 243v214q0 15 11 25t25 11h250v161q0 14 10 25t25 10 26-10l303-304q11-10 11-25t-11-25l-303-304q-11-10-26-10t-25 10-10 25v161h-250q-15 0-25 11t-11 25z m499-206q0 6 2 13t5 11 12 3h178q37 0 63 27t27 63v392q0 37-27 63t-63 27h-174t-6 0-6 2-5 3-4 5-1 8q0 2-1 11t0 15 2 13 5 11 12 3h178q67 0 114-47t47-114v-392q0-67-47-114t-114-47h-178q-7 0-13 5t-5 13q0 2-1 11t0 15z" horiz-adv-x="857.1" />
<glyph glyph-name="calendar-empty" unicode="&#xe87d;" d="m0-79v715q0 29 21 50t50 21h72v54q0 36 26 63t63 26h36q37 0 63-26t26-63v-54h214v54q0 36 27 63t63 26h35q37 0 63-26t27-63v-54h71q29 0 50-21t22-50v-715q0-29-22-50t-50-21h-786q-29 0-50 21t-21 50z m71 0h786v572h-786v-572z m143 679q0-8 5-13t13-5h36q8 0 13 5t5 13v161q0 8-5 13t-13 5h-36q-8 0-13-5t-5-13v-161z m429 0q0-8 5-13t13-5h35q8 0 13 5t5 13v161q0 8-5 13t-13 5h-35q-8 0-13-5t-5-13v-161z" horiz-adv-x="928.6" />
<glyph glyph-name="calendar" unicode="&#xe87e;" d="m0-79v715q0 29 21 50t50 21h72v54q0 36 26 63t63 26h36q37 0 63-26t26-63v-54h214v54q0 36 27 63t63 26h35q37 0 63-26t27-63v-54h71q29 0 50-21t22-50v-715q0-29-22-50t-50-21h-786q-29 0-50 21t-21 50z m71 0h161v161h-161v-161z m0 197h161v178h-161v-178z m0 214h161v161h-161v-161z m143 268q0-7 6-13t12-5h36q7 0 12 5t6 13v161q0 7-6 12t-12 6h-36q-7 0-12-6t-6-12v-161z m54-679h178v161h-178v-161z m0 197h178v178h-178v-178z m0 214h178v161h-178v-161z m214-411h179v161h-179v-161z m0 197h179v178h-179v-178z m0 214h179v161h-179v-161z m161 268q0-7 5-13t13-5h35q8 0 13 5t5 13v161q0 7-5 12t-13 6h-35q-8 0-13-6t-5-12v-161z m53-679h161v161h-161v-161z m0 197h161v178h-161v-178z m0 214h161v161h-161v-161z" horiz-adv-x="928.6" />
<glyph glyph-name="logout" unicode="&#xe87f;" d="m0 154v392q0 67 47 114t114 47h178q8 0 13-5t5-13q0-2 1-11t0-15-2-13-5-11-12-3h-178q-37 0-63-27t-27-63v-392q0-37 27-63t63-27h174t6 0 7-2 4-3 4-5 1-8q0-2 1-11t0-14-2-14-5-11-12-3h-178q-67 0-114 47t-47 114z m214 89v214q0 15 11 25t25 11h250v161q0 14 11 25t25 10 25-10l303-304q11-10 11-25t-11-25l-303-304q-11-10-25-10t-25 10-11 25v161h-250q-14 0-25 11t-11 25z" horiz-adv-x="928.6" />
<glyph glyph-name="left-circled2" unicode="&#xe880;" d="m0 350q0 117 58 215t155 156 216 58 215-58 156-156 57-215-57-215-156-156-215-58-216 58-155 156-58 215z m125 0q0-83 41-152t110-111 153-41 152 41 110 111 41 152-41 152-110 111-152 41-153-41-110-111-41-152z m89 0q0 8 5 13l179 178q5 5 13 5 7 0 12-5t6-12v-108h196q7 0 13-5t5-12v-108q0-7-5-12t-13-5h-196v-108q0-7-5-12t-13-5q-7 0-14 5l-178 178q-5 5-5 13z" horiz-adv-x="857.1" />
<glyph glyph-name="right-circled2" unicode="&#xe881;" d="m0 350q0 117 58 215t155 156 216 58 215-58 156-156 57-215-57-215-156-156-215-58-216 58-155 156-58 215z m125 0q0-83 41-152t110-111 153-41 152 41 110 111 41 152-41 152-110 111-152 41-153-41-110-111-41-152z m89-54v108q0 7 6 12t12 5h197v108q0 7 5 12t12 5q7 0 14-5l178-178q5-5 5-13t-5-13l-179-178q-5-5-13-5-7 0-12 5t-5 12v107h-197q-7 0-12 6t-6 12z" horiz-adv-x="857.1" />
<glyph glyph-name="mic" unicode="&#xe882;" d="m0 386v71q0 15 11 25t25 11 25-11 10-25v-71q0-103 74-177t176-73 177 73 73 177v71q0 15 11 25t25 11 25-11 11-25v-71q0-124-82-215t-204-104v-74h143q15 0 25-11t11-25-11-25-25-11h-357q-15 0-25 11t-11 25 11 25 25 11h143v74q-121 13-204 104t-82 215z m143 0v285q0 74 52 127t126 52 127-52 52-127v-285q0-74-52-126t-127-53-126 53-52 126z" horiz-adv-x="642.9" />
<glyph glyph-name="mute" unicode="&#xe883;" d="m7 29q0 7 6 12l688 689q6 6 13 6t13-6l46-46q5-5 5-13t-5-12l-202-202v-71q0-74-52-126t-126-53q-31 0-61 11l-54-54q55-28 115-28 103 0 176 73t74 177v71q0 15 10 25t26 11 25-11 10-25v-71q0-124-82-215t-203-104v-74h142q15 0 26-11t10-25-10-25-26-11h-357q-14 0-25 11t-10 25 10 25 25 11h143v74q-70 7-131 45l-142-142q-5-6-13-6t-12 6l-46 46q-6 5-6 13z m64 357v71q0 15 11 25t25 11 25-11 11-25v-71q0-30 8-63l-56-57q-24 58-24 120z m143 0v285q0 74 53 127t126 52q57 0 103-33t65-85z" horiz-adv-x="785.7" />
<glyph glyph-name="down-dir" unicode="&#xe884;" d="m0 457q0 15 11 25t25 11h500q14 0 25-11t10-25-10-25l-250-250q-11-11-25-11t-25 11l-250 250q-11 11-11 25z" horiz-adv-x="571.4" />
<glyph glyph-name="up-dir" unicode="&#xe885;" d="m0 171q0 15 11 26l250 250q10 10 25 10t25-10l250-250q10-11 10-26t-10-25-25-10h-500q-15 0-25 10t-11 25z" horiz-adv-x="571.4" />
<glyph glyph-name="volume-off" unicode="&#xe886;" d="m0 243v214q0 15 11 25t25 11h146l186 186q10 10 25 10t25-10 11-25v-608q0-14-11-25t-25-10-25 10l-186 186h-146q-15 0-25 11t-11 25z" horiz-adv-x="428.6" />
<glyph glyph-name="volume-down" unicode="&#xe887;" d="m0 243v214q0 15 11 25t25 11h146l186 186q10 10 25 10t25-10 11-25v-608q0-14-11-25t-25-10-25 10l-186 186h-146q-15 0-25 11t-11 25z m507 9q0 12 6 20t17 14 19 12 16 20 6 32-6 32-16 20-19 12-17 14-6 20q0 15 10 26t25 10q9 0 14-3 39-15 63-52t24-79-24-79-63-52q-5-3-14-3-14 0-25 10t-10 26z" horiz-adv-x="642.9" />
<glyph glyph-name="left-dir" unicode="&#xe888;" d="m36 350q0 15 10 25l250 250q11 11 25 11t26-11 10-25v-500q0-14-10-25t-26-11-25 11l-250 250q-10 11-10 25z" horiz-adv-x="357.1" />
<glyph glyph-name="volume-up" unicode="&#xe889;" d="m0 243v214q0 15 11 25t25 11h146l186 186q10 10 25 10t25-10 11-25v-608q0-14-11-25t-25-10-25 10l-186 186h-146q-15 0-25 11t-11 25z m507 9q0 12 6 20t17 14 19 12 16 20 6 32-6 32-16 20-19 12-17 14-6 20q0 15 10 26t25 10q9 0 14-3 39-15 63-52t24-79-24-79-63-52q-5-3-14-3-14 0-25 10t-10 26z m56-132q0 22 21 33 32 16 43 25 41 30 64 75t23 97-23 97-64 75q-11 9-43 25-21 11-21 33 0 14 10 25t25 11q7 0 15-3 78-33 125-105t48-158-48-158-125-105q-8-3-14-3-15 0-26 11t-10 25z m56-131q0 20 22 33 4 2 12 6t13 6q25 14 45 28 69 51 108 127t38 161-38 161-108 127q-20 14-45 28-4 3-13 6t-12 6q-22 13-22 33 0 14 10 25t26 11q7 0 14-3 118-51 189-158t71-236-71-236-189-158q-7-3-14-3-15 0-26 11t-10 25z" horiz-adv-x="928.6" />
<glyph glyph-name="right-dir" unicode="&#xe88a;" d="m0 100v500q0 15 11 25t25 11 25-11l250-250q10-10 10-25t-10-25l-250-250q-11-11-25-11t-25 11-11 25z" horiz-adv-x="357.1" />
<glyph glyph-name="headphones" unicode="&#xe88b;" d="m0 356q0 84 37 162t100 135 149 92 178 34 179-34 148-92 100-135 38-162q0-93-34-176l-11-27-103-18q-13-47-51-77t-87-29v-18q0-8-5-13t-13-5h-36q-8 0-13 5t-5 13v321q0 8 5 13t13 5h36q8 0 13-5t5-13v-18q39 0 72-20t52-53l38 7q16 53 16 108 0 82-49 155t-132 117-176 43-176-43-132-117-49-155q0-55 16-108l38-7q19 34 52 53t73 20v18q0 8 5 13t13 5h35q8 0 13-5t5-13v-321q0-8-5-13t-13-5h-35q-8 0-13 5t-5 13v18q-49 0-88 29t-50 77l-103 18-11 27q-34 83-34 176z" horiz-adv-x="928.6" />
<glyph glyph-name="clock-1" unicode="&#xe88c;" d="m0 350q0 117 58 215t155 156 216 58 215-58 156-156 57-215-57-215-156-156-215-58-216 58-155 156-58 215z m125 0q0-83 41-152t110-111 153-41 152 41 110 111 41 152-41 152-110 111-152 41-153-41-110-111-41-152z m161-54v36q0 8 5 13t13 5h125v196q0 8 5 13t12 5h36q8 0 13-5t5-13v-250q0-7-5-12t-13-5h-178q-8 0-13 5t-5 12z" horiz-adv-x="857.1" />
<glyph glyph-name="lightbulb" unicode="&#xe88d;" d="m0 529q0 55 25 103t65 79 92 49 104 19 104-19 91-49 66-79 24-103q0-87-57-150-25-27-42-49t-33-53-19-60q26-15 26-46 0-20-14-35 14-15 14-36 0-29-25-45 8-13 8-26 0-26-18-40t-43-14q-11-25-34-39t-48-15-49 15-33 39q-26 0-44 14t-17 40q0 13 7 26-25 16-25 45 0 21 14 36-14 15-14 35 0 31 26 46-2 28-19 60t-33 53-41 49q-58 63-58 150z m71 0q0-57 38-101 6-6 17-18t17-19q72-85 79-166h127q8 81 79 166 6 6 17 19t17 18q38 44 38 101 0 40-19 74t-50 57-69 35-76 12-76-12-69-35-50-57-20-74z m197 71q0 7 5 13t13 5q28 0 55-9t49-30 21-50q0-8-6-13t-12-5-13 5-5 13q0 25-30 39t-59 14q-8 0-13 5t-5 13z" horiz-adv-x="571.4" />
<glyph glyph-name="block" unicode="&#xe88e;" d="m0 352q0 87 34 167t91 137 137 91 167 34 166-34 137-91 91-137 34-167-34-168-91-137-137-92-166-34-167 34-137 92-91 137-34 168z m125 0q0-91 50-167l421 421q-75 50-167 50-83 0-153-40t-110-112-41-152z m138-256q76-50 166-50 62 0 118 25t96 65 65 97 24 119q0 90-48 164z" horiz-adv-x="857.1" />
<glyph glyph-name="resize-full" unicode="&#xe88f;" d="m0-43v250q0 15 11 25t25 11 25-11l80-80 185 185q6 6 13 6t13-6l64-63q5-6 5-13t-5-13l-185-185 80-81q10-10 10-25t-10-25-25-11h-250q-15 0-25 11t-11 25z m436 482q0 8 5 13l186 185-81 81q-10 10-10 25t10 25 25 11h250q15 0 26-11t10-25v-250q0-15-10-25t-26-11-25 11l-80 80-185-185q-6-6-13-6t-13 6l-64 63q-5 6-5 13z" horiz-adv-x="857.1" />
<glyph glyph-name="resize-full-alt" unicode="&#xe890;" d="m0-43v250q0 24 22 33 22 10 39-8l80-80 198 198-198 198-80-80q-11-11-25-11-7 0-14 3-22 9-22 33v250q0 14 11 25t25 11h250q23 0 33-23 9-22-8-38l-80-81 198-198 198 198-81 81q-17 16-7 38 9 23 32 23h250q15 0 26-11t10-25v-250q0-24-22-33-7-3-14-3-14 0-25 11l-80 80-198-198 198-198 80 80q16 17 39 8 22-9 22-33v-250q0-14-10-25t-26-11h-250q-23 0-32 23-10 21 7 38l81 81-198 198-198-198 80-81q17-17 8-38-10-23-33-23h-250q-15 0-25 11t-11 25z" horiz-adv-x="857.1" />
<glyph glyph-name="resize-small" unicode="&#xe891;" d="m7 11q0 7 6 13l185 185-80 80q-11 11-11 25t11 25 25 11h250q14 0 25-11t11-25v-250q0-14-11-25t-25-10-25 10l-81 81-185-186q-5-5-13-5t-13 5l-63 64q-6 5-6 13z m422 375v250q0 14 10 25t25 10 25-10l81-81 185 186q6 5 13 5t13-5l63-64q6-5 6-13t-6-13l-185-185 80-80q11-11 11-25t-11-25-25-11h-250q-14 0-25 11t-10 25z" horiz-adv-x="857.1" />
<glyph glyph-name="resize-vertical" unicode="&#xe892;" d="m36 29q0 14 10 25t25 10h72v572h-72q-14 0-25 10t-10 25 10 26l143 142q11 11 25 11t25-11l143-142q11-11 11-26t-11-25-25-10h-71v-572h71q15 0 25-10t11-25-11-26l-143-142q-10-11-25-11t-25 11l-143 142q-10 11-10 26z" horiz-adv-x="428.6" />
<glyph glyph-name="resize-horizontal" unicode="&#xe893;" d="m0 350q0 15 11 25l143 143q10 11 25 11t25-11 10-25v-72h572v72q0 14 10 25t25 11 26-11l142-143q11-10 11-25t-11-25l-142-143q-11-11-26-11t-25 11-10 25v72h-572v-72q0-14-10-25t-25-11-25 11l-143 143q-11 11-11 25z" horiz-adv-x="1000" />
<glyph glyph-name="move" unicode="&#xe894;" d="m0 350q0 15 11 25l143 143q10 11 25 11t25-11 10-25v-72h215v215h-72q-14 0-25 10t-11 25 11 26l143 142q11 11 25 11t25-11l143-142q11-11 11-26t-11-25-25-10h-72v-215h215v72q0 14 10 25t25 11 26-11l142-143q11-10 11-25t-11-25l-142-143q-11-11-26-11t-25 11-10 25v72h-215v-215h72q14 0 25-10t11-25-11-26l-143-142q-10-11-25-11t-25 11l-143 142q-11 11-11 26t11 25 25 10h72v215h-215v-72q0-14-10-25t-25-11-26 11l-142 143q-11 11-11 25z" horiz-adv-x="1000" />
<glyph glyph-name="zoom-in" unicode="&#xe895;" d="m0 386q0 80 31 152t84 126 125 84 153 31 152-31 126-84 84-126 31-152q0-123-69-223l191-191q21-21 21-51t-21-50-51-21q-30 0-50 21l-191 191q-100-69-223-69-80 0-153 31t-125 83-84 126-31 153z m143 0q0-103 73-177t177-73 176 73 74 177-74 176-176 74-177-74-73-176z m71-18v36q0 7 6 12t12 5h125v125q0 8 5 13t13 5h36q7 0 12-5t6-13v-125h125q7 0 12-5t5-12v-36q0-7-5-13t-12-5h-125v-125q0-7-6-13t-12-5h-36q-7 0-13 5t-5 13v125h-125q-7 0-12 5t-6 13z" horiz-adv-x="928.6" />
<glyph glyph-name="zoom-out" unicode="&#xe896;" d="m0 386q0 80 31 152t84 126 125 84 153 31 152-31 126-84 84-126 31-152q0-123-69-223l191-191q21-21 21-51t-21-50-51-21q-30 0-50 21l-191 191q-100-69-223-69-80 0-153 31t-125 83-84 126-31 153z m143 0q0-103 73-177t177-73 176 73 74 177-74 176-176 74-177-74-73-176z m71-18v36q0 7 6 12t12 5h322q7 0 12-5t5-12v-36q0-7-5-13t-12-5h-322q-7 0-12 5t-6 13z" horiz-adv-x="928.6" />
<glyph glyph-name="down-circle2" unicode="&#xe897;" d="m0 350q0 117 58 215t155 156 216 58 215-58 156-156 57-215-57-215-156-156-215-58-216 58-155 156-58 215z m125 0q0-83 41-152t110-111 153-41 152 41 110 111 41 152-41 152-110 111-152 41-153-41-110-111-41-152z m108-11q5 11 17 11h107v196q0 8 5 13t13 5h107q8 0 13-5t5-13v-196h107q8 0 13-5t5-13q0-7-6-13l-178-178q-6-5-12-5t-13 5l-179 178q-8 9-4 20z" horiz-adv-x="857.1" />
<glyph glyph-name="up-circle2" unicode="&#xe898;" d="m0 350q0 117 58 215t155 156 216 58 215-58 156-156 57-215-57-215-156-156-215-58-216 58-155 156-58 215z m125 0q0-83 41-152t110-111 153-41 152 41 110 111 41 152-41 152-110 111-152 41-153-41-110-111-41-152z m107 18q0 7 6 13l178 178q6 5 13 5t12-5l179-178q8-9 4-20-5-11-17-11h-107v-196q0-8-5-13t-13-5h-107q-8 0-13 5t-5 13v196h-107q-8 0-13 5t-5 13z" horiz-adv-x="857.1" />
<glyph glyph-name="down-open" unicode="&#xe899;" d="m50 425q0 14 11 25l92 92q11 11 26 11t25-11l296-296 296 296q11 11 25 11t26-11l92-92q11-11 11-25t-11-26l-414-413q-10-11-25-11t-25 11l-414 413q-11 11-11 26z" horiz-adv-x="1000" />
<glyph glyph-name="left-open" unicode="&#xe89a;" d="m86 386q0 14 11 25l414 414q10 10 25 10t25-10l92-93q11-10 11-25t-11-25l-296-296 296-297q11-10 11-25t-11-25l-92-93q-11-10-25-10t-25 10l-414 415q-11 10-11 25z" horiz-adv-x="714.3" />
<glyph glyph-name="right-open" unicode="&#xe89b;" d="m50 64q0 15 11 25l296 297-296 296q-11 11-11 25t11 25l92 93q11 10 26 10t25-10l414-414q10-11 10-25t-10-25l-414-414q-11-11-25-11t-26 11l-92 92q-11 11-11 25z" horiz-adv-x="714.3" />
<glyph glyph-name="up-open" unicode="&#xe89c;" d="m50 133q0 14 11 25l414 414q11 10 25 10t25-10l414-414q11-11 11-25t-11-26l-92-92q-11-10-26-10t-25 10l-296 297-296-297q-11-10-25-10t-26 10l-92 92q-11 11-11 26z" horiz-adv-x="1000" />
<glyph glyph-name="angle-left" unicode="&#xe89d;" d="m25 314q0 8 6 13l260 260q5 6 13 6t12-6l28-28q6-5 6-13t-6-12l-219-220 219-219q6-6 6-13t-6-13l-28-28q-5-5-12-5t-13 5l-260 260q-6 6-6 13z" horiz-adv-x="357.1" />
<glyph glyph-name="angle-right" unicode="&#xe89e;" d="m7 82q0 7 6 13l219 219-219 220q-6 5-6 12t6 13l28 28q5 6 13 6t12-6l260-260q6-5 6-13t-6-13l-260-260q-5-5-12-5t-13 5l-28 28q-6 6-6 13z" horiz-adv-x="357.1" />
<glyph glyph-name="angle-up" unicode="&#xe89f;" d="m43 189q0 8 6 13l260 260q5 6 12 6t13-6l260-260q6-5 6-13t-6-13l-28-27q-5-6-12-6t-13 6l-220 219-219-219q-5-6-13-6t-13 6l-27 27q-6 6-6 13z" horiz-adv-x="642.9" />
<glyph glyph-name="angle-down" unicode="&#xe8a0;" d="m43 439q0 8 6 13l27 28q6 6 13 6t13-6l219-219 220 219q5 6 13 6t12-6l28-28q6-5 6-13t-6-13l-260-260q-5-5-13-5t-12 5l-260 260q-6 6-6 13z" horiz-adv-x="642.9" />
<glyph glyph-name="angle-circled-left" unicode="&#xe8a1;" d="m0 350q0 117 58 215t155 156 216 58 215-58 156-156 57-215-57-215-156-156-215-58-216 58-155 156-58 215z m193 0q0-14 11-25l253-253q11-11 25-11t25 11l57 56q11 11 11 26t-11 25l-171 171 171 171q11 11 11 25t-11 25l-57 57q-10 11-25 11t-25-11l-253-253q-11-11-11-25z" horiz-adv-x="857.1" />
<glyph glyph-name="angle-circled-right" unicode="&#xe8a2;" d="m0 350q0 117 58 215t155 156 216 58 215-58 156-156 57-215-57-215-156-156-215-58-216 58-155 156-58 215z m282-196q0-15 11-26l57-56q11-11 25-11t25 11l253 253q11 11 11 25t-11 25l-253 253q-10 11-25 11t-25-11l-57-56q-11-11-11-26t11-25l171-171-171-171q-11-11-11-25z" horiz-adv-x="857.1" />
<glyph glyph-name="angle-circled-up" unicode="&#xe8a3;" d="m0 350q0 117 58 215t155 156 216 58 215-58 156-156 57-215-57-215-156-156-215-58-216 58-155 156-58 215z m140-54q0-14 10-25l57-57q11-10 25-10t25 10l172 172 171-172q11-10 25-10t25 10l57 57q11 11 11 25t-11 26l-253 253q-11 10-25 10t-26-10l-253-254q-10-10-10-25z" horiz-adv-x="857.1" />
<glyph glyph-name="angle-circled-down" unicode="&#xe8a4;" d="m0 350q0 117 58 215t155 156 216 58 215-58 156-156 57-215-57-215-156-156-215-58-216 58-155 156-58 215z m140 54q0-15 10-26l253-253q11-10 26-10t25 10l253 253q11 11 11 26t-11 25l-57 57q-10 10-25 10t-25-10l-171-172-172 172q-10 10-25 10t-25-10l-57-57q-10-11-10-25z" horiz-adv-x="857.1" />
<glyph glyph-name="angle-double-left" unicode="&#xe8a5;" d="m25 314q0 8 6 13l260 260q5 6 13 6t12-6l28-28q6-5 6-13t-6-12l-219-220 219-219q6-6 6-13t-6-13l-28-28q-5-5-12-5t-13 5l-260 260q-6 6-6 13z m214 0q0 8 6 13l260 260q6 6 13 6t13-6l28-28q5-5 5-13t-5-12l-220-220 220-219q5-6 5-13t-5-13l-28-28q-6-5-13-5t-13 5l-260 260q-6 6-6 13z" horiz-adv-x="571.4" />
<glyph glyph-name="angle-double-right" unicode="&#xe8a6;" d="m7 82q0 7 6 13l219 219-219 220q-6 5-6 12t6 13l28 28q5 6 13 6t12-6l260-260q6-5 6-13t-6-13l-260-260q-5-5-12-5t-13 5l-28 28q-6 6-6 13z m215 0q0 7 5 13l219 219-219 220q-5 5-5 12t5 13l28 28q6 6 13 6t13-6l260-260q5-5 5-13t-5-13l-260-260q-6-5-13-5t-13 5l-28 28q-5 6-5 13z" horiz-adv-x="571.4" />
<glyph glyph-name="angle-double-up" unicode="&#xe8a7;" d="m43 118q0 7 6 13l260 260q5 5 12 5t13-5l260-260q6-6 6-13t-6-13l-28-28q-5-5-12-5t-13 5l-220 219-219-219q-5-5-13-5t-13 5l-27 28q-6 6-6 13z m0 214q0 7 6 13l260 260q5 6 12 6t13-6l260-260q6-6 6-13t-6-13l-28-28q-5-5-12-5t-13 5l-220 220-219-220q-5-5-13-5t-13 5l-27 28q-6 6-6 13z" horiz-adv-x="642.9" />
<glyph glyph-name="arrows-cw" unicode="&#xe8a8;" d="m0-7v250q0 14 11 25t25 11h250q14 0 25-11t10-25-10-25l-77-77q40-37 90-57t105-20q74 0 139 37t104 99q6 10 29 66 5 13 17 13h107q8 0 13-6t5-12q0-3 0-4-36-150-150-243t-267-93q-81 0-157 31t-136 88l-72-72q-11-11-25-11t-25 11-11 25z m10 446v4q36 150 151 243t268 93q81 0 158-31t137-88l72 72q11 11 25 11t26-11 10-25v-250q0-14-10-25t-26-11h-250q-14 0-25 11t-10 25 10 25l77 77q-82 77-194 77-75 0-140-37t-104-99q-6-10-29-66-5-13-17-13h-111q-7 0-13 6t-5 12z" horiz-adv-x="857.1" />
<glyph glyph-name="eject" unicode="&#xe8a9;" d="m1 29v142q0 15 10 26t25 10h786q14 0 25-10t11-26v-142q0-15-11-26t-25-10h-786q-14 0-25 10t-10 26z m0 257q-4 7 7 18l396 396q11 10 25 10t25-10l396-396q11-11 8-18t-18-8h-822q-14 0-17 8z" horiz-adv-x="858.3" />
<glyph glyph-name="angle-double-down" unicode="&#xe8aa;" d="m43 368q0 7 6 13l27 28q6 5 13 5t13-5l219-220 220 220q5 5 13 5t12-5l28-28q6-6 6-13t-6-13l-260-260q-5-6-13-6t-12 6l-260 260q-6 6-6 13z m0 214q0 7 6 13l27 28q6 5 13 5t13-5l219-220 220 220q5 5 13 5t12-5l28-28q6-6 6-13t-6-13l-260-260q-5-5-13-5t-12 5l-260 260q-6 6-6 13z" horiz-adv-x="642.9" />
<glyph glyph-name="level-up" unicode="&#xe8ab;" d="m2 3q-5 11 2 19l89 108q5 6 14 6h179v357h-107q-23 0-33 21-9 20 5 37l179 215q10 12 27 12t28-12l178-215q15-17 5-37-10-21-32-21h-107v-482q0-8-5-13t-13-5h-393q-12 0-16 10z" horiz-adv-x="571.4" />
<glyph glyph-name="target" unicode="&#xe8ac;" d="m0 314v72q0 14 11 25t25 10h80q20 90 86 156t155 86v80q0 14 11 25t25 11h71q15 0 25-11t11-25v-80q90-21 155-86t87-156h79q15 0 26-10t10-25v-72q0-14-10-25t-26-11h-79q-21-89-87-155t-155-86v-80q0-14-11-25t-25-11h-71q-15 0-25 11t-11 25v80q-90 21-155 86t-86 155h-80q-15 0-25 11t-11 25z m189-35q18-61 63-106t105-62v60q0 15 11 26t25 10h71q15 0 25-10t11-26v-60q60 17 105 62t63 106h-61q-14 0-25 10t-11 25v72q0 14 11 25t25 10h61q-18 61-63 106t-105 62v-60q0-15-11-26t-25-10h-71q-15 0-25 10t-11 26v60q-60-17-105-62t-63-106h61q15 0 25-10t11-25v-72q0-14-11-25t-25-11h-61z" horiz-adv-x="857.1" />
<glyph glyph-name="italic" unicode="&#xe8ad;" d="m0-78l10 48q3 1 45 12t62 21q16 19 23 56 1 4 35 162t63 303 29 165v14q-13 7-30 11t-39 4-32 3l10 58q19-2 67-4t84-4 67-1q27 0 55 1t67 4 55 4q-2-22-10-50-17-6-57-16t-60-19q-5-10-8-23t-5-23-4-25-4-24q-15-82-49-234t-43-198q-1-5-7-32t-11-51-9-46-4-32l1-10q9-3 103-18-2-24-9-55-6 0-18-1t-18-1q-16 0-49 6t-48 6q-77 1-115 1-28 0-79-5t-68-6z" horiz-adv-x="571.4" />
<glyph glyph-name="paste" unicode="&#xe8ae;" d="m0 46v750q0 23 16 38t38 16h607q22 0 38-16t15-38v-183q12-7 20-15l228-228q16-16 27-42t11-50v-374q0-23-16-38t-38-16h-535q-23 0-38 16t-16 38v89h-303q-23 0-38 15t-16 38z m143 679q0-7 5-13t13-5h393q7 0 12 5t5 13v36q0 7-5 12t-12 5h-393q-7 0-13-5t-5-12v-36z m286-804h500v358h-233q-22 0-38 15t-15 38v232h-214v-643z m285 429h167l-167 167v-167z" horiz-adv-x="1000" />
<glyph glyph-name="fire" unicode="&#xe8af;" d="m0-96q0 7 5 12t13 5h750q7 0 12-5t6-12v-36q0-7-6-13t-12-5h-750q-7 0-13 5t-5 13v36z m143 446q0 44 14 80t35 63 49 49 54 43 48 41 36 45 14 54q0 52-37 125l2-1-1 1q50-23 89-46t78-56 63-68 41-84 15-103q0-44-14-80t-36-63-48-49-54-44-49-40-35-45-14-54q0-54 37-125l-2 0 1 0q-51 23-90 46t-77 56-63 68-41 84-15 103z" horiz-adv-x="785.7" />
<glyph glyph-name="pound" unicode="&#xe8b0;" d="m0 11v83q0 8 5 13t13 5h54v214h-53q-8 0-13 5t-5 13v73q0 8 5 13t13 5h53v124q0 96 69 158t175 62q104 0 187-70 5-5 6-12t-4-12l-57-71q-5-6-13-7-7-1-13 4-2 3-14 11t-39 18-51 10q-48 0-77-27t-29-68v-120h170q8 0 13-5t5-13v-73q0-7-5-13t-13-5h-170v-212h231v101q0 8 5 13t13 5h90q8 0 13-5t5-13v-204q0-8-5-13t-13-5h-533q-8 0-13 5t-5 13z" horiz-adv-x="571.4" />
<glyph glyph-name="spinner" unicode="&#xe8b1;" d="m0 350q0 37 26 63t63 26 63-26 27-63-27-63-63-26-63 26-26 63z m98 250q0 41 29 69t69 29 70-29 29-69-29-69-70-29-69 29-29 69z m18-500q0 34 24 57t56 23q33 0 57-23t24-57-24-57-57-23q-33 0-56 23t-24 57z m223 607q0 45 32 76t75 31 76-31 32-76-32-76-76-31-75 31-32 76z m36-714q0 29 21 50t50 21 51-21 21-50-21-51-51-21-50 21-21 51z m259 107q0 26 18 44t44 19 45-19 18-44-18-44-45-18-44 18-18 44z m18 500q0 18 13 32t31 13 32-13 13-32-13-32-32-13-31 13-13 32z m98-250q0 22 16 38t38 16 38-16 15-38-15-38-38-16-38 16-16 38z" horiz-adv-x="875" />
<glyph glyph-name="coffee" unicode="&#xe8b2;" d="m0 64h1000q0-59-42-101t-101-42h-714q-59 0-101 42t-42 101z m143 197v410q0 15 11 26t25 10h642q89 0 152-63t63-151-63-152-152-62h-35v-18q0-52-37-88t-88-37h-393q-51 0-88 37t-37 88z m643 125h35q45 0 76 31t32 76-32 76-76 31h-35v-214z" horiz-adv-x="1071.4" />
<glyph glyph-name="dollar" unicode="&#xe8b3;" d="m29 88l58 76q3 5 12 6 9 1 14-5l1-1q63-55 135-70 21-4 42-4 45 0 79 24t35 68q0 16-9 30t-18 23-33 21-37 18-45 18q-21 9-34 14t-34 15-35 17-32 20-29 24-25 27-20 32-11 37-5 44q0 77 55 135t142 75v100q0 7 5 13t13 5h75q8 0 13-5t5-13v-98q32-4 62-13t48-19 36-21 21-16 9-8q9-10 3-21l-46-81q-4-9-12-9-8-2-16 4-1 1-8 6t-21 15-33 18-42 15-47 6q-53 0-87-24t-33-62q0-14 4-27t17-23 22-18 31-18 34-15 39-15q30-11 45-18t43-19 42-24 34-28 30-35 18-43 7-52q0-86-56-147t-144-77v-97q0-8-5-13t-13-5h-75q-7 0-13 5t-5 13v97q-37 5-71 18t-57 25-41 26-26 21-10 10q-9 12-1 23z" horiz-adv-x="571.4" />
<glyph glyph-name="magnet" unicode="&#xe8b4;" d="m0 314v72q0 14 11 25t25 10h214q15 0 25-10t11-25v-72q0-29 13-50t30-32 39-16 36-8 25-1 24 1 36 8 39 16 30 32 13 50v72q0 14 11 25t25 10h214q15 0 26-10t10-25v-72q0-112-55-202t-153-140-220-51-221 51-153 140-55 202z m0 215v214q0 14 11 25t25 11h214q15 0 25-11t11-25v-214q0-15-11-26t-25-10h-214q-15 0-25 10t-11 26z m571 0v214q0 14 11 25t25 11h214q15 0 26-11t10-25v-214q0-15-10-26t-26-10h-214q-14 0-25 10t-11 26z" horiz-adv-x="857.1" />
<glyph glyph-name="briefcase" unicode="&#xe8b5;" d="m0 82v268h375v-89q0-15 11-25t25-11h178q15 0 25 11t11 25v89h375v-268q0-37-26-63t-63-26h-822q-36 0-63 26t-26 63z m0 322v214q0 37 26 63t63 26h197v89q0 23 15 38t38 16h322q22 0 38-16t15-38v-89h197q37 0 63-26t26-63v-215h-1000z m357 303h286v72h-286v-72z m72-428v71h142v-71h-142z" horiz-adv-x="1000" />
<glyph glyph-name="text-height" unicode="&#xe8b6;" d="m0 564v213l45 1 30-15q7-3 118-3 25 0 74 1t73 1q21 0 60 0t60 0h164q3 0 12 0t11 0 9 1 10 5 8 10l24 1q2 0 7-1t8 0q1-62 1-187 0-45-2-61-22-8-38-10-14 24-31 71-1 5-6 27t-8 41-4 20q-3 4-7 7t-8 3-8 1-10 1-9-1q-9 0-37 1t-42 0-35-1-40-4q-5-45-4-75 0-53 1-217t1-254q0-9-1-40t0-51 7-38q22-12 69-24t67-21q2-22 2-28 0-8-1-16l-19-1q-43-1-122 5t-115 6q-28 0-85-6t-84-5q-2 29-2 29v6q9 15 34 24t55 16 44 15q10 23 10 213 0 57-1 170t-2 169v65q0 1 0 9t1 14-1 14-2 13-3 8q-6 7-90 7-18 0-52-7t-44-15q-11-7-19-40t-18-62-24-30q-23 15-31 25z m789-510q5 10 23 10h45v572h-45q-18 0-23 10t6 25l71 90q11 15 27 15t27-15l70-90q12-15 7-25t-24-10h-44v-572h44q19 0 24-10t-7-25l-70-90q-11-15-27-15t-27 15l-71 90q-11 15-6 25z" horiz-adv-x="1000" />
<glyph glyph-name="down" unicode="&#xe8b7;" d="m2 125q5 11 16 11h125v696q0 8 5 13t13 5h107q8 0 13-5t5-13v-696h125q11 0 16-11t-3-19l-195-215q-6-5-13-5-8 0-13 5l-198 215q-8 9-3 19z" horiz-adv-x="428.6" />
<glyph glyph-name="level-down" unicode="&#xe8b8;" d="m2 697q5 10 16 10h393q7 0 12-5t6-13v-482h107q22 0 32-20t-5-39l-178-214q-11-13-28-13t-27 13l-179 214q-14 17-5 39 10 20 33 20h107v357h-179q-8 0-14 6l-89 108q-7 7-2 19z" horiz-adv-x="571.4" />
<glyph glyph-name="signal" unicode="&#xe8b9;" d="m0-61v107q0 8 5 13t13 5h107q8 0 13-5t5-13v-107q0-8-5-13t-13-5h-107q-8 0-13 5t-5 13z m214 0v179q0 8 5 13t13 5h107q8 0 13-5t5-13v-179q0-8-5-13t-13-5h-107q-8 0-13 5t-5 13z m215 0v322q0 8 5 13t12 5h108q7 0 12-5t5-13v-322q0-8-5-13t-12-5h-108q-7 0-12 5t-5 13z m214 0v536q0 8 5 13t13 5h107q8 0 13-5t5-13v-536q0-8-5-13t-13-5h-107q-8 0-13 5t-5 13z m214 0v822q0 8 5 13t13 5h107q8 0 13-5t5-13v-822q0-8-5-13t-13-5h-107q-8 0-13 5t-5 13z" horiz-adv-x="1000" />
<glyph glyph-name="text-width" unicode="&#xe8ba;" d="m0 564v213l45 1 30-15q7-3 118-3 25 0 74 1t73 1q39 0 138 1t170 0 138-2q18-1 31 17l23 1q3 0 8-1t8 0q1-62 1-187 0-45-3-61-21-8-38-10-14 24-30 71-1 5-6 27t-8 41-4 20q-6 7-15 10-3 1-37 1-17 0-52 1t-57 1-53-2-53-4q-5-45-5-75l1-85v29q0-31 0-86t1-101 0-85q0-9-1-40t0-51 7-38q22-12 69-24t67-21q3-22 3-28 0-8-2-16l-19-1q-42-1-121 5t-116 5q-28 0-84-5t-85-5q-2 29-2 29v5q10 15 35 24t55 17 43 15q4 9 7 41t3 81 1 87-1 85 0 50q0 4-1 12t-2 12q0 4 1 25t0 41 0 42-1 38-4 18q-6 7-90 7-23 0-91-8t-77-14q-11-6-19-39t-18-63-24-30q-23 15-31 25z m3-607q0 16 14 27 3 2 20 17t34 28 32 23 23 11q7 0 12-6t5-16 2-19-1-18-1-11h571q0 1-1 11t0 18 1 19 6 16 11 6q7 0 23-11t33-23 33-28 20-17q14-11 14-27t-14-27q-2-2-20-17t-33-27-33-23-23-11q-7 0-11 5t-6 16-1 19 0 18 1 11h-571q0-1 1-11t1-18-2-19-5-16-12-5q-7 0-23 11t-32 23-34 27-20 17q-14 11-14 27z" horiz-adv-x="857.1" />
<glyph glyph-name="suitcase" unicode="&#xe8bb;" d="m0 46v465q0 51 37 88t88 37h36v-715h-36q-51 0-88 37t-37 88z m214-125v715h72v89q0 22 15 38t38 16h322q22 0 38-16t15-38v-89h72v-715h-572z m143 715h286v71h-286v-71z m482-715v715h36q51 0 88-37t37-88v-465q0-51-37-88t-88-37h-36z" horiz-adv-x="1000" />
<glyph glyph-name="chart-bar" unicode="&#xe8bc;" d="m0 11v678q0 37 26 63t63 27h893q37 0 63-27t26-63v-678q0-37-26-63t-63-27h-893q-36 0-63 27t-26 63z m71 0q0-8 6-13t12-5h893q7 0 13 5t5 13v678q0 8-5 13t-13 5h-893q-7 0-12-5t-6-13v-678z m72 53v215h143v-215h-143z m214 0v500h143v-500h-143z m214 0v357h143v-357h-143z m215 0v572h143v-572h-143z" horiz-adv-x="1071.4" />
<glyph glyph-name="rupee" unicode="&#xe8bd;" d="m0 330v71q0 8 5 13t13 5h62q74 0 119 24t57 70h-238q-8 0-13 5t-5 13v57q0 8 5 13t13 5h230q-31 63-149 63h-81q-7 0-13 5t-5 12v75q0 8 5 13t13 5h464q8 0 13-5t5-13v-57q0-8-5-13t-13-5h-130q26-34 36-80h95q8 0 13-5t5-13v-57q0-8-5-13t-13-5h-93q-13-80-72-131t-154-61q93-99 256-299 7-9 2-19-5-10-16-10h-109q-9 0-14 7-171 204-278 318-5 5-5 12z" horiz-adv-x="501.1" />
<glyph glyph-name="food" unicode="&#xe8be;" d="m0 457v357q0 15 11 25t25 11 25-11 10-25v-232q0-14 11-25t25-11 25 11 11 25v232q0 15 11 25t25 11 25-11 10-25v-232q0-14 11-25t25-11 25 11 11 25v232q0 15 10 25t25 11 26-11 10-25v-357q0-34-20-62t-51-39v-435q0-29-21-50t-51-21h-71q-29 0-50 21t-22 50v435q-31 11-51 39t-20 62z m429-232v446q0 74 52 127t126 52h143q15 0 25-11t11-25v-893q0-29-21-50t-51-21h-71q-29 0-50 21t-22 50v286h-125q-7 0-12 5t-5 13z" horiz-adv-x="785.7" />
<glyph glyph-name="beer" unicode="&#xe8bf;" d="m36 636l18 71h267l18 72h536l18-108-36-17v-447l72-107v-107h-643v107l71 107h-71q-89 0-152 63t-63 151v179z m178-215q0-29 21-50t51-21h71v214h-143v-143z" horiz-adv-x="928.6" />
<glyph glyph-name="yen" unicode="&#xe8c0;" d="m2 752q-4 9 0 18 6 9 16 9h108q11 0 16-10l120-238q11-21 32-69 5 13 17 37t15 35l107 234q4 10 16 10h106q10 0 15-8 5-8 1-18l-175-323h120q7 0 13-5t5-13v-58q0-8-5-13t-13-5h-162v-47h162q7 0 13-5t5-13v-57q0-8-5-13t-13-5h-162v-184q0-8-5-13t-12-5h-96q-8 0-13 5t-5 13v184h-161q-7 0-13 5t-5 13v57q0 7 5 13t13 5h161v47h-161q-7 0-13 5t-5 13v58q0 8 5 13t13 5h119z" horiz-adv-x="573.1" />
<glyph glyph-name="ticket" unicode="&#xe8c1;" d="m30 243q0 30 21 51l506 505q21 21 50 21t51-21l70-70q-32-31-32-75t32-76 76-32 75 32l71-70q20-21 20-51t-20-50l-506-507q-21-20-51-20t-50 20l-71 71q32 31 32 75t-32 76-76 32-75-32l-70 71q-21 20-21 50z m161 36q0-15 10-26l202-202q11-10 26-10t25 10l345 345q10 11 10 25t-10 26l-202 202q-10 10-26 10t-25-10l-345-345q-10-11-10-25z m61 0l319 319 177-177-319-319z" horiz-adv-x="1000" />
<glyph glyph-name="ellipsis" unicode="&#xe8c2;" d="m0 332v107q0 23 16 38t38 16h107q22 0 38-16t15-38v-107q0-22-15-38t-38-15h-107q-23 0-38 15t-16 38z m286 0v107q0 23 15 38t38 16h107q23 0 38-16t16-38v-107q0-22-16-38t-38-15h-107q-22 0-38 15t-15 38z m285 0v107q0 23 16 38t38 16h107q22 0 38-16t16-38v-107q0-22-16-38t-38-15h-107q-22 0-38 15t-16 38z" horiz-adv-x="785.7" />
<glyph glyph-name="align-left" unicode="&#xe8c3;" d="m0 29v71q0 15 11 25t25 11h928q15 0 25-11t11-25v-71q0-15-11-26t-25-10h-928q-15 0-25 10t-11 26z m0 214v71q0 15 11 25t25 11h714q15 0 25-11t11-25v-71q0-15-11-25t-25-11h-714q-15 0-25 11t-11 25z m0 214v72q0 14 11 25t25 10h857q14 0 25-10t11-25v-72q0-14-11-25t-25-11h-857q-15 0-25 11t-11 25z m0 214v72q0 14 11 25t25 11h643q14 0 25-11t10-25v-72q0-14-10-25t-25-10h-643q-15 0-25 10t-11 25z" horiz-adv-x="1000" />
<glyph glyph-name="award" unicode="&#xe8c4;" d="m0 511v71q0 22 16 38t38 16h160v53q0 37 27 63t63 27h321q37 0 63-27t26-63v-53h161q22 0 38-16t16-38v-71q0-40-24-80t-62-73-97-54-120-25q-23-30-53-53-21-19-29-40t-8-50q0-30 17-51t54-21q42 0 75-25t32-64v-36q0-8-5-13t-13-5h-464q-8 0-13 5t-5 13v36q0 39 33 64t74 25q38 0 55 21t17 51q0 28-8 50t-30 40q-29 23-53 53-63 3-120 25t-96 54-63 73-23 80z m71 0q0-44 53-91t132-63q-42 91-42 207h-143v-53z m602-154q79 16 131 63t53 91v53h-143q0-116-41-207z" horiz-adv-x="928.6" />
<glyph glyph-name="shuffle" unicode="&#xe8c5;" d="m0 82v107q0 8 5 13t13 5h125q27 0 48 9t39 25 28 34 26 43q17 35 43 96 16 36 28 62t30 58 36 56 41 46 50 38 59 24 72 9h143v107q0 8 5 13t13 5q6 0 13-5l178-178q5-5 5-13t-5-13l-179-179q-5-5-12-5-8 0-13 6t-5 12v107h-143q-27 0-49-8t-38-25-29-35-25-43q-18-34-43-95-16-37-28-62t-30-59-36-55-41-47-50-38-60-23-71-10h-125q-8 0-13 5t-5 13z m0 500v107q0 8 5 13t13 5h125q139 0 229-125-34-52-77-153-12 25-20 41t-23 35-28 32-36 19-45 8h-125q-8 0-13 5t-5 13z m415-392q33 52 76 152 12-25 20-40t23-36 28-31 35-20 46-8h143v107q0 8 5 13t13 5q6 0 13-5l178-178q5-5 5-13t-5-13l-179-179q-5-5-12-5-8 0-13 6t-5 12v107q-18 0-48 0t-45-1-41 1-39 3-36 6-35 10-32 16-33 22-31 30-31 39z" horiz-adv-x="1000" />
<glyph glyph-name="left" unicode="&#xe8c6;" d="m0 296v108q0 7 5 12t13 5h696v125q0 12 11 17t19-3l215-196q5-5 5-12 0-8-5-14l-215-197q-9-8-19-4-11 5-11 17v124h-696q-8 0-13 6t-5 12z" horiz-adv-x="1000" />
<glyph glyph-name="right" unicode="&#xe8c7;" d="m36 348q0 8 5 14l215 197q9 8 19 4 11-5 11-17v-125h696q8 0 13-5t5-12v-108q0-7-5-12t-13-5h-696v-125q0-12-11-17t-19 3l-215 196q-5 5-5 12z" horiz-adv-x="1000" />
<glyph glyph-name="exchange" unicode="&#xe8c8;" d="m0 136q0 8 5 13l179 178q5 5 12 5 8 0 13-5t5-13v-107h768q7 0 13-5t5-13v-107q0-7-5-12t-13-6h-768v-107q0-7-5-12t-13-6q-6 0-13 6l-178 178q-5 5-5 13z m0 303v107q0 8 5 13t13 5h768v107q0 8 5 13t13 5q6 0 13-5l178-178q5-5 5-13t-5-13l-179-179q-5-5-12-5-8 0-13 6t-5 12v107h-768q-7 0-13 6t-5 12z" horiz-adv-x="1000" />
<glyph glyph-name="desktop" unicode="&#xe8c9;" d="m0 154v607q0 37 26 63t63 26h893q37 0 63-26t26-63v-607q0-37-26-63t-63-27h-303q0-20 9-43t17-40 9-24q0-14-10-25t-25-11h-286q-15 0-25 11t-11 25q0 8 9 25t18 39 9 43h-304q-36 0-63 27t-26 63z m71 142q0-7 6-12t12-5h893q7 0 13 5t5 12v465q0 7-5 12t-13 6h-893q-7 0-12-6t-6-12v-465z" horiz-adv-x="1071.4" />
<glyph glyph-name="align-center" unicode="&#xe8ca;" d="m0 29v71q0 15 11 25t25 11h928q15 0 25-11t11-25v-71q0-15-11-26t-25-10h-928q-15 0-25 10t-11 26z m71 428v72q0 14 11 25t25 10h786q14 0 25-10t11-25v-72q0-14-11-25t-25-11h-786q-14 0-25 11t-11 25z m143-214v71q0 15 11 25t25 11h500q15 0 25-11t11-25v-71q0-15-11-25t-25-11h-500q-14 0-25 11t-11 25z m72 428v72q0 14 10 25t25 11h358q14 0 25-11t10-25v-72q0-14-10-25t-25-10h-358q-14 0-25 10t-10 25z" horiz-adv-x="1000" />
<glyph glyph-name="ellipsis-vert" unicode="&#xe8cb;" d="m0 46v108q0 22 16 38t38 15h107q22 0 38-15t15-38v-108q0-22-15-37t-38-16h-107q-23 0-38 16t-16 37z m0 286v107q0 23 16 38t38 16h107q22 0 38-16t15-38v-107q0-22-15-38t-38-15h-107q-23 0-38 15t-16 38z m0 286v107q0 22 16 38t38 16h107q22 0 38-16t15-38v-107q0-22-15-38t-38-16h-107q-23 0-38 16t-16 38z" horiz-adv-x="214.3" />
<glyph glyph-name="credit-card" unicode="&#xe8cc;" d="m0 11v678q0 37 26 63t63 27h893q37 0 63-27t26-63v-678q0-37-26-63t-63-27h-893q-36 0-63 27t-26 63z m71 0q0-8 6-13t12-5h893q7 0 13 5t5 13v339h-929v-339z m0 553h929v125q0 8-5 13t-13 5h-893q-7 0-12-5t-6-13v-125z m72-500v72h143v-72h-143z m214 0v72h214v-72h-214z" horiz-adv-x="1071.4" />
<glyph glyph-name="rouble" unicode="&#xe8cd;" d="m0 136v71q0 8 5 13t13 5h125v66h-125q-8 0-13 5t-5 13v83q0 7 5 12t13 6h125v351q0 8 5 13t13 5h301q111 0 182-69t70-175-70-176-182-68h-190v-66h282q7 0 12-5t5-13v-71q0-8-5-13t-12-5h-282v-107q0-8-6-13t-12-5h-93q-8 0-13 5t-5 13v107h-125q-8 0-13 5t-5 13z m272 274h178q60 0 96 34t36 91-36 90-96 35h-178v-250z" horiz-adv-x="714.3" />
<glyph glyph-name="user-md" unicode="&#xe8ce;" d="m0 66q0 38 3 73t14 77 26 74 45 58 67 33q-12-29-12-67v-113q-32-11-52-39t-20-62q0-45 32-76t76-31 75 31 32 76q0 34-20 62t-52 39v113q0 35 14 52 74-58 165-58t164 58q14-17 14-52v-35q-59 0-101-42t-41-101v-50q-18-16-18-40 0-22 15-37t38-16 38 16 16 37q0 24-18 40v50q0 29 21 50t50 21 51-21 21-50v-50q-18-16-18-40 0-22 16-37t38-16 38 16 15 37q0 24-18 40v50q0 38-19 71t-52 52q0 6 0 24t0 27-1 23-4 26-7 22q38-8 67-33t45-58 26-74 14-77 3-73q0-68-41-106t-108-39h-488q-67 0-108 39t-41 106z m143 34q0 15 11 25t25 11 25-11 10-25-10-25-25-11-26 11-10 25z m36 464q0 89 62 152t152 63 151-63 63-152-63-151-151-63-152 63-62 151z" horiz-adv-x="785.7" />
<glyph glyph-name="stethoscope" unicode="&#xe8cf;" d="m0 421v286q0 15 11 25t25 11q3 0 9-1 9 16 26 27t36 10q30 0 51-21t21-51-21-50-51-21q-18 0-36 10v-225q0-59 53-101t126-41 126 41 53 101v225q-18-10-36-10-30 0-51 21t-21 50 21 51 51 21q19 0 36-10t26-27q6 1 9 1 15 0 25-11t11-25v-286q0-80-61-140t-153-72v-73q0-59 52-101t126-42 126 42 53 101v220q-32 12-52 39t-20 62q0 45 32 76t76 31 75-31 32-76q0-34-20-62t-52-39v-220q0-89-73-152t-177-63-176 63-74 152v73q-91 12-153 72t-61 140z m643 36q0-14 10-25t26-11 25 11 10 25-10 25-25 11-26-11-10-25z" horiz-adv-x="785.7" />
<glyph glyph-name="try" unicode="&#xe8d0;" d="m0 332v72q0 12 13 17l130 40v51l-120-37q-2 0-5 0-6 0-11 3-7 6-7 15v71q0 13 13 18l130 39v140q0 8 5 13t13 5h89q8 0 13-5t5-13v-101l209 64q9 3 16-2t7-15v-71q0-13-13-18l-219-67v-52l209 65q9 3 16-3t7-15v-71q0-13-13-17l-219-68v-272q105 8 177 85t73 183q0 8 5 13t13 5h89q8 0 13-5t5-13q0-107-53-197t-143-143-197-53h-89q-8 0-13 5t-5 13v341l-120-37q-2-1-5-1-6 0-11 4-7 5-7 14z" horiz-adv-x="642.9" />
<glyph glyph-name="floppy" unicode="&#xe8d1;" d="m0-25v750q0 22 16 38t38 16h517q23 0 50-12t42-26l156-157q16-15 27-42t11-49v-518q0-22-15-38t-38-16h-750q-23 0-38 16t-16 38z m71 18h72v232q0 22 16 38t37 16h465q22 0 38-16t15-38v-232h72v500q0 8-6 21t-11 20l-157 156q-5 6-19 12t-22 5v-232q0-22-15-38t-38-16h-322q-22 0-37 16t-16 38v232h-72v-714z m143 0h429v214h-429v-214z m143 518q0-8 5-13t13-5h107q7 0 13 5t5 13v178q0 8-5 13t-13 5h-107q-7 0-13-5t-5-13v-178z" horiz-adv-x="857.1" />
<glyph glyph-name="off" unicode="&#xe8d2;" d="m0 350q0 102 45 191t126 151q24 18 54 14t46-28q18-23 14-53t-28-47q-54-41-84-101t-30-127q0-58 22-111t62-91 91-61 111-23 110 23 92 61 61 91 22 111q0 68-30 127t-84 101q-24 18-28 47t14 53q17 24 47 28t53-14q81-61 126-151t45-191q0-87-34-166t-91-137-137-92-166-34-167 34-136 92-92 137-34 166z m357 71v358q0 29 21 50t51 21 50-21 21-50v-358q0-29-21-50t-50-21-51 21-21 50z" horiz-adv-x="857.1" />
<glyph glyph-name="align-right" unicode="&#xe8d3;" d="m0 29v71q0 15 11 25t25 11h928q15 0 25-11t11-25v-71q0-15-11-26t-25-10h-928q-15 0-25 10t-11 26z m71 428v72q0 14 11 25t25 10h857q15 0 25-10t11-25v-72q0-14-11-25t-25-11h-857q-14 0-25 11t-11 25z m143-214v71q0 15 11 25t25 11h714q15 0 25-11t11-25v-71q0-15-11-25t-25-11h-714q-14 0-25 11t-11 25z m72 428v72q0 14 10 25t25 11h643q15 0 25-11t11-25v-72q0-14-11-25t-25-10h-643q-14 0-25 10t-10 25z" horiz-adv-x="1000" />
<glyph glyph-name="laptop" unicode="&#xe8d4;" d="m0 46v54h1071v-54q0-22-26-37t-63-16h-893q-36 0-63 16t-26 37z m143 179v393q0 37 26 63t63 26h607q37 0 63-26t27-63v-393q0-37-27-63t-63-26h-607q-37 0-63 26t-26 63z m71 0q0-7 6-13t12-5h607q8 0 13 5t5 13v393q0 7-5 12t-13 6h-607q-7 0-12-6t-6-12v-393z m268-170q0-9 9-9h89q9 0 9 9t-9 9h-89q-9 0-9-9z" horiz-adv-x="1071.4" />
<glyph glyph-name="expand" unicode="&#xe8d5;" d="m0 82v536q0 66 47 113t114 48h535q67 0 114-48t47-113v-536q0-66-47-113t-114-48h-535q-67 0-114 48t-47 113z m143 0q0-7 5-12t13-6h535q8 0 13 6t5 12v536q0 7-5 12t-13 6h-535q-7 0-13-6t-5-12v-536z m75 391q10 20 32 20h357q22 0 32-20 10-19-3-36l-178-250q-11-16-29-16t-29 16l-179 250q-13 17-3 36z" horiz-adv-x="857.1" />
<glyph glyph-name="up" unicode="&#xe8d6;" d="m2 575q-5 10 3 19l195 215q5 5 13 5 7 0 13-5l198-215q7-9 3-19-5-11-16-11h-125v-696q0-8-5-13t-13-5h-107q-8 0-13 5t-5 13v696h-125q-12 0-16 11z" horiz-adv-x="428.6" />
<glyph glyph-name="down-1" unicode="&#xe8d7;" d="m30 386q0 29 21 51l41 41q22 21 51 21 29 0 50-21l164-164v393q0 29 21 50t51 22h71q29 0 50-22t21-50v-393l164 164q21 21 51 21 29 0 50-21l42-42q21-21 21-50 0-30-21-51l-363-363q-22-21-51-21-29 0-50 21l-363 363q-21 20-21 51z" horiz-adv-x="928.6" />
<glyph glyph-name="collapse" unicode="&#xe8d8;" d="m0 82v536q0 66 47 113t114 48h535q67 0 114-48t47-113v-536q0-66-47-113t-114-48h-535q-67 0-114 48t-47 113z m143 0q0-7 5-12t13-6h535q8 0 13 6t5 12v536q0 7-5 12t-13 6h-535q-7 0-13-6t-5-12v-536z m75 145q-10 19 3 37l179 250q10 15 29 15t29-15l178-250q13-18 3-37-10-20-32-20h-357q-22 0-32 20z" horiz-adv-x="857.1" />
<glyph glyph-name="tablet" unicode="&#xe8d9;" d="m0 82v607q0 37 26 63t63 27h465q36 0 63-27t26-63v-607q0-37-26-63t-63-26h-465q-36 0-63 26t-26 63z m71 72q0-8 6-13t12-5h465q7 0 12 5t5 13v535q0 8-5 13t-12 5h-465q-7 0-12-5t-6-13v-535z m215-90q0-14 10-25t25-10 26 10 10 25-10 25-26 11-25-11-10-25z" horiz-adv-x="642.9" />
<glyph glyph-name="align-justify" unicode="&#xe8da;" d="m0 29v71q0 15 11 25t25 11h928q15 0 25-11t11-25v-71q0-15-11-26t-25-10h-928q-15 0-25 10t-11 26z m0 214v71q0 15 11 25t25 11h928q15 0 25-11t11-25v-71q0-15-11-25t-25-11h-928q-15 0-25 11t-11 25z m0 214v72q0 14 11 25t25 10h928q15 0 25-10t11-25v-72q0-14-11-25t-25-11h-928q-15 0-25 11t-11 25z m0 214v72q0 14 11 25t25 11h928q15 0 25-11t11-25v-72q0-14-11-25t-25-10h-928q-15 0-25 10t-11 25z" horiz-adv-x="1000" />
<glyph glyph-name="road" unicode="&#xe8db;" d="m28 34q0 30 14 64l233 583q5 11 15 18t21 8h189q-7 0-13-5t-6-13l-8-107q-1-8 4-13t12-5h93q7 0 12 5t5 13l-9 107q0 7-6 13t-13 5h190q11 0 21-8t14-18l233-583q15-34 15-64 0-41-26-41h-393q7 0 12 5t5 13l-11 143q-1 7-7 12t-12 5h-152q-7 0-13-5t-6-12l-11-143q-1-8 4-13t12-5h-392q-26 0-26 41z m423 260q0-6 5-11t12-4h136q7 0 12 4t4 11v2l-13 179q-1 7-7 13t-12 5h-104q-7 0-13-5t-6-13l-14-179v-2z" horiz-adv-x="1071.4" />
<glyph glyph-name="megaphone" unicode="&#xe8dc;" d="m0 368v107q0 37 26 63t63 26h268q243 0 500 215 29 0 50-22t22-50v-214q29 0 50-21t21-51-21-50-50-21v-214q0-29-22-51t-50-21q-233 194-453 212-32-10-51-37t-17-56 22-51q-11-19-13-37t4-32 18-31 27-28 35-28q-17-32-63-46t-94-7-73 31q-4 13-17 49t-18 53-12 50-9 56 2 55 12 61h-68q-36 0-63 27t-26 63z m429-22q210-23 428-190v532q-220-168-428-191v-151z" horiz-adv-x="1000" />
<glyph glyph-name="won" unicode="&#xe8dd;" d="m0 368v36q0 7 5 12t13 5h98l-19 72h-79q-8 0-13 5t-5 13v35q0 8 5 13t13 5h61l-50 192q-3 9 3 16 5 7 14 7h77q14 0 17-14l50-201h201l54 201q4 14 17 14h70q14 0 18-14l54-201h204l52 201q3 14 17 14h77q9 0 14-7 6-7 3-16l-51-192h62q8 0 13-5t5-13v-35q0-8-5-13t-13-5h-81l-19-72h100q8 0 13-5t5-12v-36q0-8-5-13t-13-5h-119l-91-344q-4-13-18-13h-88q-14 0-18 13l-92 344h-117l-93-344q-4-13-17-13h-89q-6 0-11 4t-6 9l-89 344h-116q-8 0-13 5t-5 13z m208 125l18-72h126l19 72h-163z m35-143l42-167q1-1 1-2t0-2q0 1 1 2t0 2l45 167h-89z m216 71h77l-19 72h-39z m165 72l19-72h128l19 72h-166z m38-143l46-167q0 0 0-2t1-2q0 1 0 2t0 2l44 167h-91z" horiz-adv-x="1000" />
<glyph glyph-name="ambulance" unicode="&#xe8de;" d="m36 100q0 15 10 25t25 11v232q0 14 8 32t18 29l110 110q11 11 29 18t32 7h89v179q0 14 11 25t25 11h643q14 0 25-11t10-25v-643q0-14-10-25t-25-11h-107q0-59-42-101t-101-42-101 42-42 101h-214q0-59-42-101t-101-42-101 42-42 101h-72q-14 0-25 11t-10 25z m107 250h214v143h-88q-8-1-12-5l-109-109q-4-7-5-12v-17z m71-286q0-29 21-50t51-21 50 21 21 50-21 51-50 21-51-21-21-51z m286 375q0-8 5-13t13-5h125v-125q0-7 5-12t13-5h107q8 0 13 5t5 12v125h125q8 0 13 5t5 13v107q0 8-5 13t-13 5h-125v125q0 8-5 13t-13 5h-107q-8 0-13-5t-5-13v-125h-125q-8 0-13-5t-5-13v-107z m214-375q0-29 21-50t51-21 50 21 21 50-21 51-50 21-51-21-21-51z" horiz-adv-x="1071.4" />
<glyph glyph-name="medkit" unicode="&#xe8df;" d="m0 46v465q0 51 37 88t88 37h18v-715h-18q-51 0-88 37t-37 88z m196-125v715h90v89q0 22 15 38t38 16h322q22 0 38-16t15-38v-89h90v-715h-608z m90 304q0-8 5-13t13-5h125v-125q0-8 5-13t12-5h108q7 0 12 5t5 13v125h125q8 0 13 5t5 13v107q0 8-5 13t-13 5h-125v125q0 8-5 13t-12 5h-108q-7 0-12-5t-5-13v-125h-125q-8 0-13-5t-5-13v-107z m71 411h286v71h-286v-71z m500-715v715h18q51 0 88-37t37-88v-465q0-51-37-88t-88-37h-18z" horiz-adv-x="1000" />
<glyph glyph-name="bitcoin" unicode="&#xe8e0;" d="m31-7l18 102h62q27 0 32 28v225h9q-4 0-9 0v160q-7 38-50 38h-62v92l119-1q35 0 54 1v141h86v-138q45 1 68 1v137h86v-141q44-4 78-13t63-25 46-43 20-64q10-102-73-144 65-16 98-58t25-119q-4-40-18-70t-36-49-54-33-68-19-81-9v-142h-86v140q-45 0-68 1v-141h-86v142q-10 0-30 1t-31 0h-112z m260 101q5 0 21 0t27 0 29 1 33 2 32 5 31 8 26 11 22 17 14 22 5 29q0 20-8 35t-21 26-32 17-36 10-42 6-38 1-36 0-27-1v-189z m0 275q3 0 20 0t26 0 27 1 31 3 29 6 27 10 21 15 15 22 5 28q0 19-7 33t-17 23-27 16-31 9-34 5-33 1-30 0-22-1v-171z" horiz-adv-x="714.3" />
<glyph glyph-name="hdd" unicode="&#xe8e1;" d="m0 82v179q0 14 9 42l110 338q9 29 35 48t56 18h437q30 0 56-18t35-48l110-338q9-28 9-42v-179q0-37-26-63t-63-26h-679q-36 0-63 26t-26 63z m71 0q0-7 6-12t12-6h679q7 0 12 6t6 12v179q0 7-6 12t-12 6h-679q-7 0-12-6t-6-12v-179z m28 268h659l-88 269q-2 7-9 12t-14 5h-437q-7 0-14-5t-9-12z m392-179q0 19 13 32t32 13 31-13 13-32-13-31-31-13-32 13-13 31z m143 0q0 19 13 32t32 13 31-13 13-32-13-31-31-13-32 13-13 31z" horiz-adv-x="857.1" />
<glyph glyph-name="list-alt" unicode="&#xe8e2;" d="m0 82v607q0 37 26 63t63 27h822q37 0 63-27t26-63v-607q0-37-26-63t-63-26h-822q-36 0-63 26t-26 63z m71 0q0-7 6-12t12-6h822q7 0 12 6t6 12v464q0 8-6 13t-12 5h-822q-7 0-12-5t-6-13v-464z m72 72v35q0 8 5 13t13 5h35q8 0 13-5t5-13v-35q0-8-5-13t-13-5h-35q-7 0-13 5t-5 13z m0 142v36q0 7 5 13t13 5h35q8 0 13-5t5-13v-36q0-7-5-12t-13-5h-35q-7 0-13 5t-5 12z m0 143v36q0 7 5 13t13 5h35q8 0 13-5t5-13v-36q0-7-5-12t-13-6h-35q-7 0-13 6t-5 12z m143-285v35q0 8 5 13t13 5h535q8 0 13-5t5-13v-35q0-8-5-13t-13-5h-535q-8 0-13 5t-5 13z m0 142v36q0 7 5 13t13 5h535q8 0 13-5t5-13v-36q0-7-5-12t-13-5h-535q-8 0-13 5t-5 12z m0 143v36q0 7 5 13t13 5h535q8 0 13-5t5-13v-36q0-7-5-12t-13-6h-535q-8 0-13 6t-5 12z" horiz-adv-x="1000" />
<glyph glyph-name="list" unicode="&#xe8e3;" d="m0 11v107q0 7 5 12t13 6h107q7 0 13-6t5-12v-107q0-8-5-13t-13-5h-107q-7 0-13 5t-5 13z m0 214v107q0 7 5 13t13 5h107q7 0 13-5t5-13v-107q0-7-5-13t-13-5h-107q-7 0-13 5t-5 13z m0 214v107q0 8 5 13t13 5h107q7 0 13-5t5-13v-107q0-7-5-12t-13-6h-107q-7 0-13 6t-5 12z m0 215v107q0 7 5 12t13 6h107q7 0 13-6t5-12v-107q0-8-5-13t-13-5h-107q-7 0-13 5t-5 13z m214-643v107q0 7 6 12t12 6h750q7 0 13-6t5-12v-107q0-8-5-13t-13-5h-750q-7 0-12 5t-6 13z m0 214v107q0 7 6 13t12 5h750q7 0 13-5t5-13v-107q0-7-5-13t-13-5h-750q-7 0-12 5t-6 13z m0 214v107q0 8 6 13t12 5h750q7 0 13-5t5-13v-107q0-7-5-12t-13-6h-750q-7 0-12 6t-6 12z m0 215v107q0 7 6 12t12 6h750q7 0 13-6t5-12v-107q0-8-5-13t-13-5h-750q-7 0-12 5t-6 13z" horiz-adv-x="1000" />
<glyph glyph-name="mobile" unicode="&#xe8e4;" d="m0 64v572q0 29 21 50t50 21h286q29 0 50-21t22-50v-572q0-29-22-50t-50-21h-286q-29 0-50 21t-21 50z m54 90q0-8 5-13t12-5h286q7 0 13 5t5 13v392q0 8-5 13t-13 5h-286q-7 0-12-5t-5-13v-392z m107 473q0-9 9-9h89q9 0 9 9t-9 9h-89q-9 0-9-9z m9-563q0-18 13-31t31-13 32 13 13 31-13 32-32 13-31-13-13-32z" horiz-adv-x="428.6" />
<glyph glyph-name="expand-right" unicode="&#xe8e5;" d="m0 82v536q0 66 47 113t114 48h535q67 0 114-48t47-113v-536q0-66-47-113t-114-48h-535q-67 0-114 48t-47 113z m143 0q0-8 5-13t13-5h535q8 0 13 5t5 13v536q0 8-5 13t-13 5h-535q-8 0-13-5t-5-13v-536z m143 89v358q0 22 19 31 20 10 37-2l250-179q15-11 15-29t-15-29l-250-179q-17-12-37-2-19 9-19 31z" horiz-adv-x="857.1" />
<glyph glyph-name="collapse-left" unicode="&#xe8e6;" d="m0 82v536q0 66 47 113t114 48h535q67 0 114-48t47-113v-536q0-66-47-113t-114-48h-535q-67 0-114 48t-47 113z m143 0q0-7 5-12t13-6h535q8 0 13 6t5 12v536q0 7-5 12t-13 6h-535q-7 0-13-6t-5-12v-536z m107 268q0 18 15 29l250 179q10 6 21 6 14 0 25-10t10-25v-358q0-14-10-25t-25-10q-11 0-21 6l-250 179q-15 11-15 29z" horiz-adv-x="857.1" />
<glyph glyph-name="inbox" unicode="&#xe8e7;" d="m0 29v269q0 34 14 68l133 308q5 14 20 24t29 9h465q14 0 29-9t20-24l133-308q14-34 14-68v-269q0-15-10-26t-26-10h-785q-15 0-25 10t-11 26z m110 285h176l53-107h179l53 107h176q0 2-1 5t-2 4l-118 277h-395l-118-277q-1-1-2-4t-1-5z" horiz-adv-x="857.1" />
<glyph glyph-name="indent-left" unicode="&#xe8e8;" d="m0 11v107q0 7 5 12t13 6h964q7 0 13-6t5-12v-107q0-8-5-13t-13-5h-964q-7 0-13 5t-5 13z m0 643v107q0 7 5 12t13 6h964q7 0 13-6t5-12v-107q0-8-5-13t-13-5h-964q-7 0-13 5t-5 13z m18-268q0 8 5 13l161 160q5 5 12 5 8 0 13-5t5-13v-321q0-7-5-13t-13-5q-7 0-12 5l-161 161q-5 5-5 13z m339-161v107q0 7 5 13t13 5h607q7 0 13-5t5-13v-107q0-7-5-13t-13-5h-607q-7 0-13 5t-5 13z m0 214v107q0 8 5 13t13 5h607q7 0 13-5t5-13v-107q0-7-5-12t-13-6h-607q-7 0-13 6t-5 12z" horiz-adv-x="1000" />
<glyph glyph-name="qrcode" unicode="&#xe8e9;" d="m0-7v357h357v-357h-357z m0 428v358h357v-358h-357z m71-356h215v214h-215v-214z m0 428h215v214h-215v-214z m72-357v71h71v-71h-71z m0 428v72h71v-72h-71z m286-571v357h214v-71h71v71h72v-214h-215v71h-71v-214h-71z m0 428v358h357v-358h-357z m71 72h214v214h-214v-214z m71-500v71h72v-71h-72z m0 571v72h72v-72h-72z m143-571v71h72v-71h-72z" horiz-adv-x="785.7" />
<glyph glyph-name="key" unicode="&#xe8ea;" d="m0 413q0 89 53 174t138 139 175 53q91 0 148-58t57-148q0-105-73-204l198-198 54 54q-2 2-15 14t-22 21-18 20-9 16q0 10 27 37t37 28q7 0 13-6 3-3 26-25t45-44 49-48 40-44 16-23q0-9-27-36t-37-28q-5 0-16 9t-20 19-22 22-13 14l-54-53 123-123q15-16 15-38 0-23-21-45t-46-22q-22 0-38 16l-374 374q-98-73-204-73-91 0-148 57t-57 148z m107 8q0-44 31-75t76-32 76 32 31 75q0 24-10 47 23-11 46-11 45 0 76 31t31 76-31 76-76 31-76-31-31-76q0-23 11-46-23 11-47 11-44 0-76-32t-31-76z" horiz-adv-x="1000" />
<glyph glyph-name="sort" unicode="&#xe8eb;" d="m0 243q0 14 11 25t25 11h500q14 0 25-11t10-25-10-25l-250-250q-11-11-25-11t-25 11l-250 250q-11 10-11 25z m0 214q0 15 11 25l250 250q10 11 25 11t25-11l250-250q10-10 10-25t-10-25-25-11h-500q-15 0-25 11t-11 25z" horiz-adv-x="571.4" />
<glyph glyph-name="h-sigh" unicode="&#xe8ec;" d="m0 82v536q0 66 47 113t114 48h535q67 0 114-48t47-113v-536q0-66-47-113t-114-48h-535q-67 0-114 48t-47 113z m143 18q0-14 11-25t25-11h71q15 0 25 11t11 25v179h285v-179q0-14 11-25t25-11h72q14 0 25 11t10 25v500q0 15-10 25t-25 11h-72q-14 0-25-11t-11-25v-179h-285v179q0 15-11 25t-25 11h-71q-15 0-25-11t-11-25v-500z" horiz-adv-x="857.1" />
</font>
</defs>
</svg>
